<?xml version="1.0" standalone="no"?>
<!DOCTYPE svg PUBLIC "-//W3C//DTD SVG 1.1//EN" "http://www.w3.org/Graphics/SVG/1.1/DTD/svg11.dtd" >
<svg xmlns="http://www.w3.org/2000/svg" xmlns:xlink="http://www.w3.org/1999/xlink" version="1.1">
<metadata></metadata>
<defs>
<font id="delta_jaegermedium" horiz-adv-x="1193" >
<font-face units-per-em="2048" ascent="1638" descent="-410" />
<missing-glyph horiz-adv-x="598" />
<glyph unicode="&#xfb01;" d="M-29 778l125 234h23v61q2 53 8 113.5t41 120.5q39 66 93 100.5t108.5 51t99.5 19.5t66 3q72 0 117.5 -8.5t74.5 -16.5v-242q-16 8 -45 17.5t-70 9.5t-84 -19.5t-63 -74.5q-10 -27 -11 -54.5t-1 -80.5h221v-234h-221v-778h-334v778h-148zM770 1294q0 70 50 112t120 42 q66 0 116 -41t50 -113t-50 -112.5t-118 -40.5q-66 0 -117 41t-51 112zM774 0v1012h330v-1012h-330z" />
<glyph unicode="&#xfb02;" d="M-29 778l125 234h23v61q2 53 8 113.5t41 120.5q39 66 93 100.5t108.5 51t99.5 19.5t66 3q72 0 117.5 -8.5t72.5 -16.5v-242q-16 8 -44 17.5t-69 9.5t-84 -19.5t-63 -74.5q-10 -27 -11 -54.5t-1 -80.5h221v-234h-221v-778h-334v778h-148zM772 0v1448h334v-1448h-334z" />
<glyph horiz-adv-x="0" />
<glyph unicode="&#xd;" horiz-adv-x="598" />
<glyph unicode=" "  horiz-adv-x="598" />
<glyph unicode="&#x09;" horiz-adv-x="598" />
<glyph unicode="&#xa0;" horiz-adv-x="598" />
<glyph unicode="!" horiz-adv-x="598" d="M117 154q0 31 11 62.5t33.5 56t54.5 40t75 15.5q78 0 125 -52t47 -122q0 -72 -48 -122t-124 -50q-78 0 -126 52t-48 120zM123 1446h338l-29 -903l-276 -135z" />
<glyph unicode="&#x22;" horiz-adv-x="811" d="M66 1413q0 31 12 54.5t31.5 38t43 21.5t46.5 7q39 0 67.5 -17.5t42.5 -46.5q10 -20 9 -39.5t-3 -37.5l-96 -531h-55l-94 506q-2 10 -3 21.5t-1 23.5zM492 1413q0 31 12 54.5t31.5 38t43 21.5t46.5 7q39 0 67.5 -17.5t42.5 -46.5q10 -20 10 -39.5t-2 -37.5l-96 -531h-55 l-96 506q-2 10 -3 21.5t-1 23.5z" />
<glyph unicode="#" horiz-adv-x="1366" d="M86 438v203h276l27 195h-256v204h283l55 406h213l-57 -406h200l56 406h207l-56 -406h240v-204h-266l-29 -195h252v-203h-277l-63 -438h-207l64 438h-203l-62 -438h-209l62 438h-250zM569 641h205l27 195h-203z" />
<glyph unicode="$" horiz-adv-x="1110" d="M96 61v320q78 -59 173.5 -98t195.5 -39q39 0 76 9t65.5 29.5t46 52.5t17.5 75q0 37 -13.5 63.5t-36 46t-52 33.5t-62.5 29l-117 49q-35 14 -84 41.5t-95 74t-79 114t-33 163.5q0 68 21.5 133.5t63.5 121.5t103.5 99t143.5 66v270h277v-250q94 -12 151 -30.5t119 -47.5 v-307q-68 55 -147.5 91t-167.5 36q-53 0 -91.5 -14t-61 -35.5t-32.5 -48.5t-10 -51q0 -33 14.5 -58.5t36 -45t48 -35t52.5 -29.5l138 -60q129 -55 208.5 -154.5t79.5 -240.5q0 -78 -23.5 -144.5t-64.5 -119.5q-33 -43 -68.5 -71.5t-69.5 -48t-63.5 -30t-47.5 -16.5v-293 h-277v273q-53 4 -141 17t-193 60z" />
<glyph unicode="%" horiz-adv-x="1961" d="M59 950q0 111 27 201t80 154q43 49 107.5 80.5t154.5 31.5q104 0 175 -40t113 -105.5t60.5 -148.5t18.5 -171q0 -117 -25 -208t-76 -152q-98 -117 -268 -117q-102 0 -172 39t-113 104.5t-62.5 151.5t-19.5 180zM303 940q0 -37 5 -96.5t22 -106.5q2 -6 8 -20.5t17.5 -27.5 t28.5 -24.5t42 -11.5q41 0 64.5 26t37.5 73q12 45 17.5 101t5.5 99q0 63 -9.5 132t-33.5 110q-10 16 -29.5 31.5t-50.5 15.5q-43 0 -67.5 -31.5t-37 -78t-16.5 -98.5t-4 -93zM528 0l689 1399h217l-689 -1399h-217zM1167 455q0 111 27 202t80 154q43 49 107.5 81t156.5 32 q104 0 175 -40t113 -105.5t60.5 -149.5t18.5 -172q0 -20 -1 -50t-6.5 -64t-12.5 -69.5t-19 -68.5q-16 -41 -42 -81t-66 -72t-95 -51t-129 -19q-104 0 -175 38.5t-113 105.5t-60.5 151.5t-18.5 177.5zM1411 444q0 -37 5 -96t22 -106q2 -6 8 -20.5t17.5 -28t29.5 -24.5t43 -11 q39 0 63.5 25.5t38.5 72.5q12 45 17.5 101.5t5.5 99.5q0 63 -9.5 132.5t-33.5 108.5q-10 18 -29.5 34t-52.5 16q-43 0 -67.5 -32t-37 -78t-16.5 -99.5t-4 -94.5z" />
<glyph unicode="&#x26;" horiz-adv-x="1536" d="M43 410q0 86 27.5 155.5t72.5 120.5q59 68 126 99.5t112 48.5q-102 119 -102 260q0 82 32.5 152.5t94 122.5t150.5 83t200 31t196.5 -31t146 -82t92.5 -119.5t32 -144.5q0 -59 -18.5 -114.5t-51.5 -102.5q-49 -68 -109.5 -102.5t-101.5 -55.5l594 -534l-229 -252 l-342 305l-115 -234q-72 -25 -154 -39t-145 -14q-96 0 -188.5 28.5t-163 86t-113.5 140.5t-43 192zM403 446q0 -35 15.5 -72.5t48.5 -68.5t85 -50t126 -19q53 0 118.5 12t129.5 41l-367 342q-70 -16 -113 -66.5t-43 -118.5zM629 1108q0 -63 34.5 -113.5t73.5 -81.5 q12 4 42 17.5t60.5 36t53 58.5t22.5 85q0 57 -34.5 102t-104.5 45q-66 0 -106.5 -44t-40.5 -105z" />
<glyph unicode="'" horiz-adv-x="425" d="M86 1413q0 31 12.5 54.5t32 38t43 21.5t45.5 7q39 0 67.5 -17.5t43.5 -46.5q10 -20 10 -39.5t-2 -37.5l-96 -531h-56l-96 506q-2 10 -3 21.5t-1 23.5z" />
<glyph unicode="(" horiz-adv-x="641" d="M63 721q0 96 28 227t112 277q53 90 98 138t84 83h264q-25 -29 -69.5 -90.5t-90 -152.5t-78 -211t-32.5 -267q0 -61 6 -121.5t21 -120.5q20 -96 51.5 -173t66.5 -136t68 -102t57 -72h-264q-41 37 -85 86t-97 137q-139 231 -140 498z" />
<glyph unicode=")" horiz-adv-x="641" d="M-8 0q20 25 38.5 48.5t37 50t37 58t38.5 72.5q55 109 87 231t32 263q0 59 -6 120.5t-20 121.5q-20 94 -52 169.5t-66 135t-68 102.5t-58 74h264q41 -37 86 -86t96 -135q68 -115 104 -241t36 -259q0 -129 -34 -256t-106 -248q-53 -88 -98 -137t-84 -84h-264z" />
<glyph unicode="*" horiz-adv-x="811" d="M37 1116l63 187l203 -68v211h199v-211l203 72l67 -187l-207 -73l125 -173l-153 -118l-131 178l-125 -178l-164 118l127 173z" />
<glyph unicode="+" horiz-adv-x="1366" d="M86 492v208h494v494h211v-494h491v-208h-491v-492h-211v492h-494z" />
<glyph unicode="," horiz-adv-x="512" d="M-41 -285l217 576h318l-330 -576h-205z" />
<glyph unicode="-" horiz-adv-x="768" d="M4 428l154 225h606l-154 -225h-606z" />
<glyph unicode="." horiz-adv-x="512" d="M82 154q0 68 47 121t125 53q41 0 73.5 -14.5t55.5 -39t34 -56t11 -64.5q0 -72 -48 -122t-124 -50q-78 0 -126 52t-48 120z" />
<glyph unicode="/" horiz-adv-x="811" d="M0 0l498 1446h313l-494 -1446h-317z" />
<glyph unicode="0" horiz-adv-x="1280" d="M72 702q0 150 32.5 282t102 230.5t180.5 155.5t266 57q150 -2 256.5 -59t172 -155.5t96 -229.5t30.5 -278q0 -139 -27.5 -271.5t-94 -235t-176 -166t-271.5 -63.5q-156 0 -264.5 58.5t-176 158t-97 232.5t-29.5 284zM442 692q0 -27 1 -66.5t6.5 -83.5t13.5 -90t20 -83 q4 -10 14.5 -32t29 -44.5t45 -38.5t65.5 -16q68 0 104.5 44t57.5 109q12 37 19 80t11.5 86t5.5 83t1 71q0 53 -4.5 107t-11.5 104.5t-20.5 92.5t-31.5 72q-12 20 -43 48t-86 28q-37 0 -63.5 -15t-45 -38t-31 -51.5t-20.5 -52.5q-12 -39 -19 -85.5t-11.5 -89.5t-5.5 -80.5 t-1 -58.5z" />
<glyph unicode="1" horiz-adv-x="1280" d="M281 872v287l577 262v-1421h-358v975z" />
<glyph unicode="2" horiz-adv-x="1280" d="M150 0v266l399 439q72 78 106.5 131t34.5 120q0 27 -8 59t-29.5 59.5t-59.5 47t-95 19.5q-53 0 -99.5 -16.5t-85.5 -41t-71.5 -54.5t-61.5 -58v342q82 47 186.5 82t227.5 35q119 0 209 -36t149.5 -95.5t89 -135.5t29.5 -157q0 -68 -17.5 -123.5t-43 -102.5t-57 -87 t-60.5 -72l-309 -353h604l-193 -268h-845z" />
<glyph unicode="3" horiz-adv-x="1280" d="M166 61v324q80 -70 172 -102.5t168 -32.5q55 0 94 15.5t64.5 40t38 56t12.5 64.5q0 53 -24.5 89t-61.5 58q-41 23 -93.5 31t-111.5 8q-16 0 -49 -1t-62 -1l166 240l40 4t42 10q41 16 68.5 50t27.5 85q0 59 -42 102.5t-128 43.5t-160.5 -43t-133.5 -107v324 q104 66 209.5 88.5t181.5 22.5q98 0 179 -27t139.5 -75t90 -115.5t31.5 -149.5q0 -78 -24.5 -131t-60.5 -88t-73 -55.5t-61 -32.5q41 -10 104.5 -36t116.5 -91q51 -63 63.5 -124t12.5 -95q0 -98 -40 -179t-110.5 -139.5t-167 -90.5t-209.5 -32q-47 0 -99 6.5t-106.5 18.5 t-106.5 29.5t-97 37.5z" />
<glyph unicode="4" horiz-adv-x="1280" d="M41 311v152l553 936h436v-826h242l-182 -262h-60v-311h-342v311h-647zM428 573h260v480z" />
<glyph unicode="5" horiz-adv-x="1280" d="M147 63v322q51 -41 104.5 -66.5t102.5 -41t89 -21.5t69 -6q68 0 114 20.5t73.5 51t40 66.5t12.5 69q0 66 -33 115t-92 79q-33 16 -71 26.5t-75 15.5t-69.5 7t-53.5 2q-33 0 -76.5 -2t-99.5 -10l117 709h782v-264h-483l-39 -222q78 -2 152.5 -11t146.5 -38 q84 -35 137.5 -85t84 -107.5t43 -114.5t12.5 -104q0 -88 -33 -175.5t-102.5 -156t-178 -110.5t-258.5 -42q-96 0 -201.5 21.5t-214.5 72.5z" />
<glyph unicode="6" horiz-adv-x="1280" d="M113 549q0 135 35.5 259t99.5 230q49 82 105.5 148.5t105.5 114t82.5 73t36.5 25.5h516q-88 -45 -166 -100.5t-137 -110.5q-68 -66 -124.5 -140.5t-95.5 -160.5q39 18 84 34.5t113 16.5q90 0 169 -33t138.5 -92t94 -143t34.5 -185q0 -102 -34.5 -196t-103.5 -165 t-169 -113t-231 -42q-121 0 -222.5 40t-175 116t-114.5 182.5t-41 241.5zM477 469q0 -121 54.5 -176t125.5 -55q86 0 135.5 64.5t49.5 180.5q0 117 -51.5 172.5t-126.5 55.5q-96 0 -141.5 -72t-45.5 -170z" />
<glyph unicode="7" horiz-adv-x="1280" d="M170 1137v262h1038l-583 -1399h-383l479 1137h-551z" />
<glyph unicode="8" horiz-adv-x="1280" d="M94 385q0 94 39 170q25 49 57.5 81t65.5 52.5t63.5 31.5t53.5 17q-66 23 -116 58.5t-83 97.5q-20 41 -27.5 80t-7.5 74q0 92 39 162.5t106.5 119.5t160 75t196.5 26q115 0 207 -28t157.5 -78t101.5 -120.5t36 -159.5q0 -117 -58.5 -191.5t-146.5 -107.5q-8 -2 -15.5 -4 t-13.5 -4q8 -4 15.5 -5t17.5 -5q43 -14 86 -41t79 -67.5t58.5 -97t22.5 -130.5q0 -90 -37 -167t-107.5 -134t-172 -89t-230.5 -32q-121 0 -221.5 30t-172 83t-112.5 130t-41 173zM449 426q0 -86 57 -138t137 -52q82 0 136.5 52t54.5 138q0 82 -53.5 138.5t-139.5 56.5 q-82 0 -137 -55.5t-55 -139.5zM481 999q0 -78 48.5 -119.5t113.5 -41.5q63 0 111.5 40.5t48.5 120.5t-47 122t-113 42q-78 0 -120 -49t-42 -115z" />
<glyph unicode="9" horiz-adv-x="1280" d="M74 913q0 102 34.5 195.5t103.5 165.5t169 114t231 42q123 0 225.5 -41t175 -116t113.5 -182.5t41 -238.5q0 -121 -31.5 -245t-103.5 -247q-49 -82 -106.5 -148.5t-106.5 -113.5t-83 -72l-34 -26h-518q82 43 159 95t142 116q55 53 118 129t106 172q-49 -23 -91.5 -37 t-107.5 -14q-90 0 -170 32.5t-139.5 92t-93 142.5t-33.5 185zM436 915q0 -61 14.5 -102t32.5 -63q49 -61 133 -62q96 0 141.5 72t45.5 170q0 61 -14.5 101t-32.5 67q-23 27 -55.5 45t-79.5 18q-84 0 -134.5 -64.5t-50.5 -181.5z" />
<glyph unicode=":" horiz-adv-x="598" d="M117 154q0 68 47 121t125 53q41 0 73.5 -14.5t55 -39t34 -56t11.5 -64.5q0 -72 -48 -122t-124 -50q-78 0 -126 52t-48 120zM117 856q0 68 47 121t125 53q41 0 73.5 -14.5t55 -39t34 -56t11.5 -64.5q0 -72 -48 -122t-124 -50q-78 0 -126 52t-48 120z" />
<glyph unicode=";" horiz-adv-x="598" d="M-59 -285l217 576h317l-330 -576h-204zM152 856q0 68 47 121t125 53q82 0 128 -53t46 -121q0 -74 -49.5 -123t-122.5 -49q-78 0 -126 52t-48 120z" />
<glyph unicode="&#x3c;" horiz-adv-x="1366" d="M0 614v213l1366 625v-231l-1083 -500l1083 -498v-229z" />
<glyph unicode="=" horiz-adv-x="1366" d="M0 299v211h1366v-211h-1366zM0 684v211h1366v-211h-1366z" />
<glyph unicode="&#x3e;" horiz-adv-x="1366" d="M0 -6v229l1081 498l-1081 500v231l1366 -625v-213z" />
<glyph unicode="?" horiz-adv-x="894" d="M59 1092v299q23 10 59 24.5t82 28.5t103 23.5t123 9.5q121 0 208 -34t142 -89.5t82 -124t27 -137.5q0 -66 -21.5 -125.5t-60.5 -106.5q-31 -37 -64.5 -59.5t-66.5 -35.5t-62.5 -19.5t-50.5 -8.5v-188l-311 -143v481q49 4 101 9t100 28q8 4 22 14t29.5 26.5t27 40 t11.5 54.5q0 27 -10.5 53.5t-33 47t-57.5 33.5t-84 13q-51 0 -95 -11t-81 -28.5t-66.5 -38t-52.5 -36.5zM229 154q0 68 47.5 121t124.5 53q80 0 127 -52t47 -122q0 -74 -49 -123t-123 -49q-78 0 -126 52t-48 120z" />
<glyph unicode="@" horiz-adv-x="1835" d="M141 481q0 197 72 374t198 312.5t298 214t374 78.5q141 0 255 -44t193 -123t121 -188.5t42 -238.5q0 -92 -22.5 -196.5t-63.5 -196.5q-35 -76 -80 -137.5t-96.5 -105.5t-106.5 -67.5t-111 -23.5q-29 0 -48 5.5t-33 11.5q-31 14 -49.5 33.5t-29 39t-13.5 39t-5 31.5 q-10 -14 -32.5 -41t-57.5 -52.5t-82 -45t-104 -19.5q-55 0 -105.5 20.5t-88.5 62.5t-60.5 105.5t-22.5 149.5q0 111 34 216.5t93.5 188.5t139 133t174.5 50q55 0 95 -17.5t65.5 -42t41 -50t23.5 -39.5l25 106h161l-67 -317q-23 -102 -34 -165t-16.5 -99.5t-6.5 -53t-1 -24.5 q0 -25 8.5 -51.5t43.5 -26.5q39 0 89 46t94 125t73.5 182t29.5 218q0 127 -42 216t-109.5 144.5t-153.5 80t-174 24.5q-158 0 -301 -67.5t-250.5 -182.5t-171 -267.5t-63.5 -322.5t61.5 -284.5t155.5 -185t207.5 -100.5t220.5 -30q90 0 169 16.5t145.5 43t120.5 57.5t97 61 q53 35 86 65t58 54l82 -102q-43 -43 -113 -99.5t-164 -108.5t-213 -88t-262 -36q-131 0 -271.5 39t-256 126t-190.5 227.5t-75 342.5zM670 492q0 -33 6 -67t24 -63q20 -29 51 -46t66 -17q43 0 90 27.5t82 74.5q29 37 48.5 81t30.5 87t16.5 81t5.5 65q0 98 -47.5 146 t-106.5 48q-61 0 -110.5 -40t-84 -101t-53 -135t-18.5 -141z" />
<glyph unicode="A" horiz-adv-x="1492" d="M0 0l569 1446h367l557 -1446h-399l-99 289h-516l-104 -289h-375zM557 512h363l-154 457q-8 25 -12 38t-9 42l-13 -45.5t-9 -26.5z" />
<glyph unicode="B" horiz-adv-x="1280" d="M109 0v1446h614q76 0 157 -19.5t146.5 -64.5t107.5 -116.5t42 -178.5q0 -111 -57.5 -186.5t-162.5 -122.5q27 -10 60 -24.5t65 -37.5q66 -45 106 -118.5t40 -163.5t-41 -173t-119 -143q-45 -35 -92 -55t-94 -29.5t-91.5 -11.5t-82.5 -2h-598zM471 264h150q104 0 167.5 45 t63.5 144q0 61 -24.5 98t-64.5 56.5t-92.5 26.5t-105.5 7h-94v-377zM471 672l131 192q23 0 46.5 1t47.5 7q68 16 99.5 59.5t31.5 94.5q0 49 -20.5 80t-51 46t-69.5 20.5t-76 5.5h-139v-506z" />
<glyph unicode="C" horiz-adv-x="1366" d="M63 707q0 154 54.5 294t161 247.5t265 171t369.5 63.5q123 0 218.5 -18.5t168.5 -41.5v-321q-18 12 -49.5 30.5t-74.5 36t-98.5 29.5t-119.5 12q-121 0 -214 -38.5t-156.5 -105.5t-97 -156t-33.5 -187q0 -104 35.5 -194.5t104.5 -158t167 -105.5t225 -38q98 0 192.5 20.5 t184.5 57.5l-176 -303q-41 -10 -111.5 -24.5t-191.5 -14.5q-195 0 -347.5 57.5t-259 158t-162 235.5t-55.5 293z" />
<glyph unicode="D" horiz-adv-x="1536" d="M109 0v1446h647q150 0 280.5 -47t228 -138.5t153 -223.5t55.5 -302q0 -156 -52.5 -293t-150.5 -235q-74 -74 -153 -116t-156.5 -62.5t-149.5 -24.5t-133 -4h-569zM483 279h107q59 0 121.5 6t128.5 34q70 31 114.5 79t71.5 102.5t37 113t10 111.5q0 102 -31.5 183 t-88 137.5t-137.5 87t-179 32.5h-154v-886z" />
<glyph unicode="E" horiz-adv-x="1150" d="M109 0v1446h938v-285h-562v-276h482v-283h-482v-315h670l-164 -287h-882z" />
<glyph unicode="F" horiz-adv-x="1067" d="M109 0v1446h958v-283h-580v-311h492v-285h-492v-567h-378z" />
<glyph unicode="G" horiz-adv-x="1622" d="M61 715q0 150 56.5 289t169 245.5t278.5 170t387 63.5q127 0 240 -18.5t235 -57.5v-324q-25 14 -63.5 37t-92.5 43.5t-123 34.5t-151 14q-123 0 -223 -36.5t-173 -102t-111.5 -157t-38.5 -197.5q0 -98 32.5 -187.5t95 -159t156.5 -110.5t217 -41q78 0 130.5 14.5 t88.5 28.5l5 275h-342l147 260h547l-4 -697q-150 -66 -306.5 -102.5t-318.5 -36.5q-193 0 -347.5 54.5t-264 153.5t-168 237.5t-58.5 306.5z" />
<glyph unicode="H" horiz-adv-x="1536" d="M109 0v1446h376v-543h564v543h378v-1446h-378v616h-564v-616h-376z" />
<glyph unicode="I" horiz-adv-x="598" d="M109 0v1446h378v-1446h-378z" />
<glyph unicode="J" horiz-adv-x="894" d="M-10 14l141 265q20 -10 50 -19.5t69 -9.5q96 0 129 68.5t33 207.5v920h376v-961q0 -78 -7 -147.5t-44 -138.5q-66 -127 -187.5 -181.5t-264.5 -54.5q-156 0 -295 51z" />
<glyph unicode="K" horiz-adv-x="1449" d="M109 0v1446h376v-662l482 662h424l-498 -658l590 -788h-443l-555 745v-745h-376z" />
<glyph unicode="L" horiz-adv-x="1150" d="M109 0v1446h378v-1157h666l-168 -289h-876z" />
<glyph unicode="M" horiz-adv-x="1961" d="M61 0l164 1446h379l375 -803l379 803h375l170 -1446h-371l-78 940l-450 -940h-54l-444 944l-82 -944h-363z" />
<glyph unicode="N" horiz-adv-x="1622" d="M109 0v1446h331l707 -784v784h364v-1446h-243l-793 879v-879h-366z" />
<glyph unicode="O" horiz-adv-x="1705" d="M63 723q0 160 54.5 298t157 240.5t250 162t331.5 59.5q186 0 333.5 -60.5t248 -164t154 -239.5t53.5 -288q0 -150 -51.5 -289t-151 -245.5t-244.5 -170t-334 -63.5q-188 0 -337.5 57.5t-252 160t-157 240.5t-54.5 302zM463 725q0 -100 26.5 -186t77.5 -150.5t124 -101.5 t165 -37q100 0 174 42t121 109.5t70.5 151.5t23.5 166q0 104 -26.5 193t-76.5 153.5t-123 101.5t-163 37t-161.5 -35.5t-124 -100t-80 -153t-27.5 -190.5z" />
<glyph unicode="P" horiz-adv-x="1280" d="M109 0v1446h634q96 0 185.5 -26.5t158 -81t109.5 -135.5t41 -189q0 -66 -18.5 -127.5t-53.5 -110.5q-51 -74 -119.5 -114.5t-137 -60t-132 -24t-104.5 -4.5h-187v-573h-376zM485 606l150 213q29 0 76 7.5t88 41.5q59 49 59 131q0 47 -17.5 81t-46 55.5t-66.5 32t-81 10.5 h-162v-572z" />
<glyph unicode="Q" horiz-adv-x="1705" d="M63 721q0 158 55.5 297t159 242.5t250 163t328.5 59.5q184 0 330.5 -59.5t248 -162t156 -239.5t54.5 -293q0 -102 -18.5 -182t-46.5 -140.5t-57.5 -102.5t-52.5 -71l211 -210l-233 -236l-246 248q-43 -18 -126 -45t-218 -27q-184 0 -331.5 60.5t-251 164t-158 240.5 t-54.5 293zM467 727q0 -104 28.5 -192.5t80 -152t123 -98t159.5 -34.5q96 0 169 41t121 107.5t72.5 150.5t24.5 170q0 111 -28.5 200t-80 152.5t-122 98t-156.5 34.5q-84 0 -155.5 -33.5t-124 -97t-82 -151.5t-29.5 -195z" />
<glyph unicode="R" horiz-adv-x="1409" d="M109 0v1446h655q84 0 167 -22.5t148.5 -71.5t106.5 -126t41 -184q0 -92 -37 -168q-39 -86 -94.5 -130t-89.5 -64l415 -680h-411l-369 612q-27 -2 -44 -3t-33.5 -1h-36h-50.5v-608h-368zM477 639l144 203q35 2 58 3t48 7q57 14 93 57t36 107q0 49 -20.5 80.5t-42.5 48.5 q-35 27 -86.5 31t-110.5 4h-119v-541z" />
<glyph unicode="S" horiz-adv-x="1110" d="M88 51v324q23 -16 52.5 -38t82.5 -46q59 -27 122 -43.5t120 -16.5q53 0 93 13.5t65 34.5q25 23 40 55.5t15 68.5q0 39 -15.5 68t-39 49.5t-53 35.5t-58.5 28l-82 32q-41 16 -98.5 46t-110.5 78t-91 120t-38 172q0 78 30 159t94.5 145.5t162.5 105.5t237 41 q102 0 189.5 -20.5t179.5 -63.5v-309q-72 61 -151.5 95t-176.5 34q-57 0 -95 -16.5t-59.5 -40t-29.5 -50.5t-8 -49q0 -37 15.5 -64.5t40 -48t56 -37t64.5 -30.5l104 -43q39 -18 92.5 -47t102.5 -77t83 -119t34 -173q0 -92 -36 -176t-105.5 -146.5t-171 -100.5t-230.5 -38 q-20 0 -61 2t-97.5 11.5t-125 26.5t-142.5 48z" />
<glyph unicode="T" d="M-2 1159v287h1200v-287h-410v-1159h-376v1159h-414z" />
<glyph unicode="U" horiz-adv-x="1536" d="M109 545v901h376v-825q0 -78 9.5 -146.5t40 -122t87 -84t150.5 -30.5q86 0 140.5 27.5t86 75.5t43 112.5t11.5 138.5v854h374v-873q0 -68 -10 -161t-57 -181q-43 -78 -108.5 -130t-143.5 -82.5t-166 -43t-176 -12.5q-92 0 -167 12.5t-133 33t-101 44t-74 47.5 q-68 51 -104.5 113.5t-54 123t-20.5 116t-3 92.5z" />
<glyph unicode="V" horiz-adv-x="1492" d="M0 1446h412l346 -995l356 995h379l-584 -1446h-334z" />
<glyph unicode="W" horiz-adv-x="2048" d="M0 1446h375l211 -965l430 965h47l410 -961l202 961h373l-348 -1446h-346l-322 752l-327 -752h-343z" />
<glyph unicode="X" horiz-adv-x="1409" d="M0 0l506 750l-467 696h420l250 -391l254 391h417l-471 -690l498 -756h-422l-283 446l-292 -446h-410z" />
<glyph unicode="Y" horiz-adv-x="1449" d="M0 1446h426l311 -567l314 567h399l-535 -916v-530h-380v530z" />
<glyph unicode="Z" horiz-adv-x="1366" d="M55 0v276l744 881h-688v289h1161v-285l-737 -872h831l-168 -289h-1143z" />
<glyph unicode="[" horiz-adv-x="681" d="M109 0v1446h534v-248h-248v-950h248v-248h-534z" />
<glyph unicode="\" horiz-adv-x="811" d="M0 1446h313l498 -1446h-317z" />
<glyph unicode="]" horiz-adv-x="681" d="M39 0v248h248v950h-248v248h534v-1446h-534z" />
<glyph unicode="^" horiz-adv-x="1492" d="M262 664l400 782h186l383 -782h-242l-237 501l-250 -501h-240z" />
<glyph unicode="_" horiz-adv-x="1024" d="M-20 -154h1064v-102h-1064v102z" />
<glyph unicode="`" horiz-adv-x="598" d="M55 1284v225l486 -184v-221z" />
<glyph unicode="a" horiz-adv-x="1067" d="M31 289q0 74 24.5 126t58 88t68.5 55.5t56 29.5q63 27 131.5 36t138.5 9q49 0 89 -4t62 -8q-2 37 -11 72.5t-32.5 65t-66.5 47t-115 17.5q-49 0 -95 -8t-88 -20.5t-77 -26.5t-59 -25l149 261q68 16 135.5 24t137.5 8q27 0 65.5 -2t81.5 -11t87 -25.5t83 -47.5 q43 -35 66.5 -72.5t35 -75.5t13.5 -72t2 -60v-422q0 -70 2 -135.5t6 -112.5h-313q-4 35 -4 67.5t-3 88.5l-137 -170q-29 -4 -53.5 -7.5t-58.5 -3.5q-135 0 -211 40t-113 93.5t-46 105.5t-9 75zM346 301q0 -53 40 -88t122 -35q49 0 89 12.5t62 22.5v223q-18 2 -48.5 4 t-47.5 2q-66 0 -104 -12q-37 -10 -59.5 -26.5t-34 -35t-15.5 -37t-4 -30.5z" />
<glyph unicode="b" d="M92 92v1354h334v-637l141 213q23 4 56.5 9t76.5 5q106 0 189.5 -40t139.5 -108.5t85 -158.5t29 -190q0 -88 -28 -186.5t-94.5 -182.5t-176 -139.5t-275.5 -55.5q-125 0 -243.5 32t-233.5 85zM426 254q23 -14 55.5 -28.5t85.5 -14.5q70 0 115 31.5t71.5 78t37 100.5 t10.5 99q0 43 -10.5 93.5t-36 92.5t-69.5 69.5t-110 27.5q-59 0 -96 -16.5t-53 -26.5v-506z" />
<glyph unicode="c" horiz-adv-x="937" d="M51 504q0 104 36 200.5t105.5 170t174 118.5t243.5 45q59 0 134 -11t155 -46v-274q-10 10 -30.5 26.5t-49 32.5t-67.5 27.5t-86 11.5q-61 0 -111.5 -22.5t-85.5 -62.5t-54.5 -94.5t-19.5 -117.5q0 -59 18.5 -115.5t56.5 -99.5t96.5 -69.5t135.5 -26.5q66 0 124.5 16 t111.5 37l-133 -244q-12 -4 -36 -9t-53.5 -9t-63.5 -8.5t-66 -4.5q-127 0 -226.5 43t-168 115t-104.5 168t-36 203z" />
<glyph unicode="d" d="M51 494q0 113 34 212t95.5 172.5t146.5 115.5t189 42q102 0 162.5 -27.5t91.5 -47.5v485h332v-1446h-332v205l-139 -205q-29 -8 -66 -16.5t-82 -8.5q-113 0 -193.5 45.5t-134 118t-79 165.5t-25.5 190zM393 494q0 -45 11.5 -104.5t52.5 -108.5q23 -29 63.5 -51.5 t100.5 -22.5q41 0 77.5 11t71.5 32v495q-14 10 -53 32t-99 22q-63 0 -106 -28t-69.5 -72t-38 -98t-11.5 -107z" />
<glyph unicode="e" horiz-adv-x="1150" d="M51 504q0 113 36 210t104.5 168.5t169 112.5t231.5 41q37 0 87 -4t105.5 -21.5t111.5 -50t103 -88.5q45 -53 69 -109t35 -111.5t13 -106.5t2 -90h-715q0 -8 6.5 -33t20.5 -54.5t35.5 -60.5t52.5 -51q53 -35 106.5 -48t131.5 -13q86 0 168 17t159 50l-145 -254 q-86 -20 -161 -26.5t-126 -6.5q-166 0 -280.5 45.5t-185 120t-102.5 170t-32 193.5zM397 633h402q-2 27 -10.5 69.5t-47.5 81.5q-55 55 -137 56q-68 0 -128 -47.5t-79 -159.5z" />
<glyph unicode="f" horiz-adv-x="681" d="M-29 778l125 234h23v61q2 53 8 113.5t41 120.5q39 66 93 100.5t108.5 51t99.5 19.5t66 3q72 0 117.5 -8.5t74.5 -16.5v-242q-16 8 -45 17.5t-70 9.5t-84 -19.5t-63 -74.5q-10 -27 -11 -54.5t-1 -80.5h221v-234h-221v-778h-334v778h-148z" />
<glyph unicode="g" d="M51 498q0 102 35 199.5t106.5 172t184 120.5t266.5 46q86 0 160 -12t132 -28.5t101 -33t66 -26.5v-782q0 -35 -2 -82t-15 -101q-18 -70 -58 -137t-97 -117q-86 -78 -194.5 -107.5t-221.5 -29.5q-27 0 -73 3t-101 11.5t-116.5 22.5t-117.5 39v287q74 -57 173.5 -92 t193.5 -35q66 0 129.5 20.5t106.5 69.5q47 53 56 121.5t9 165.5v65l-145 -207q-16 -4 -48 -8t-67 -4q-102 0 -187 31.5t-146.5 91t-95.5 144.5t-34 192zM395 530q0 -123 60.5 -192.5t162.5 -69.5q53 0 92.5 14.5t63.5 26.5v459q-18 8 -54 19.5t-83 11.5q-111 0 -176.5 -74 t-65.5 -195z" />
<glyph unicode="h" d="M94 0v1446h334v-660l145 226q29 6 82.5 15t106.5 9q18 0 48 -2t64.5 -10t71.5 -26.5t70 -49.5q31 -31 48 -63.5t25.5 -66.5t10.5 -67.5t2 -64.5v-686h-324v479q0 80 -3 134.5t-21 95.5t-55 64.5t-91 23.5q-27 0 -74 -11.5t-106 -52.5v-733h-334z" />
<glyph unicode="i" horiz-adv-x="512" d="M86 1294q0 70 50 112t120 42q66 0 116 -41t50 -113t-50 -112.5t-118 -40.5q-66 0 -117 41t-51 112zM90 0v1014h330v-1014h-330z" />
<glyph unicode="j" horiz-adv-x="512" d="M86 1294q0 70 50 112t120 42q66 0 117 -41t51 -113t-51 -112.5t-119 -40.5q-66 0 -117 41t-51 112zM90 -418v1432h330v-1243z" />
<glyph unicode="k" horiz-adv-x="1150" d="M92 0v1446h336v-856l338 422h369l-357 -449l402 -563h-385l-367 524v-524h-336z" />
<glyph unicode="l" horiz-adv-x="512" d="M88 0v1446h334v-1446h-334z" />
<glyph unicode="m" horiz-adv-x="1878" d="M94 0v1014h332v-213l145 203q20 6 78 20t123 14q104 0 166.5 -30.5t96.5 -71.5t46.5 -81t16.5 -60l151 211q51 16 102.5 24t102.5 8q72 0 141.5 -22.5t116.5 -75.5q51 -59 60.5 -122.5t9.5 -133.5v-684h-332v512q0 86 -4 131t-21 78q-23 41 -60.5 58.5t-84.5 17.5 q-61 0 -107.5 -21.5t-70.5 -38.5q2 -18 2 -43.5v-79.5v-614h-332v557q0 119 -33.5 178.5t-136.5 59.5q-47 0 -91 -15.5t-85 -38.5v-741h-332z" />
<glyph unicode="n" d="M94 0v1012h324v-230l162 224q51 16 100 23t90 7q18 0 48 -2t62.5 -11t67.5 -26.5t66 -48.5q33 -33 50 -68.5t25.5 -71.5t10.5 -72t2 -68v-668h-326v530q0 59 -7 108.5t-26.5 83.5t-55.5 52.5t-93 18.5q-55 0 -100 -20.5t-76 -45.5v-727h-324z" />
<glyph unicode="o" d="M51 502q0 113 38 210t109.5 169.5t174 113.5t231.5 41q115 0 213 -34.5t171 -100t114 -163t41 -222.5q0 -102 -30 -198.5t-96.5 -173t-170 -123t-250.5 -46.5t-250.5 46.5t-169 121t-95.5 169t-30 190.5zM399 506q0 -45 3.5 -75t7.5 -46q16 -78 62 -132t126 -54 q74 0 115 43t59.5 97t21.5 105.5t3 67.5q0 37 -5.5 89t-26 100.5t-59 82t-106.5 33.5q-76 0 -117 -41t-59 -95t-21.5 -105.5t-3.5 -69.5z" />
<glyph unicode="p" d="M94 -428v1440h334v-203l137 203q25 8 59.5 16t82.5 8q100 0 181 -37.5t138 -105.5t87 -163t30 -210q0 -133 -38 -234.5t-102.5 -170t-149.5 -104.5t-177 -36t-153.5 27t-94.5 47v-477h-334zM428 270q14 -10 53 -33.5t99 -23.5q102 0 161.5 84t59.5 219q0 55 -13.5 110.5 t-42.5 96.5q-29 37 -71.5 60.5t-100.5 23.5q-41 0 -75.5 -10.5t-69.5 -30.5v-496z" />
<glyph unicode="q" d="M51 475q0 104 34 205.5t103.5 180.5t177 127t252.5 48q104 0 232.5 -28.5t251.5 -87.5v-1348h-332v631l-141 -209q-31 -8 -65 -13.5t-72 -5.5q-94 0 -175 36t-139.5 100.5t-92.5 156.5t-34 207zM393 502q0 -33 3 -64.5t14 -62.5q25 -90 83 -129t123 -39q55 0 96.5 18.5 t57.5 28.5v502q-20 12 -54 27.5t-87 15.5q-104 0 -170 -78t-66 -219z" />
<glyph unicode="r" horiz-adv-x="811" d="M94 0v1012h334v-205l141 205q55 18 107.5 22t71.5 4q23 0 36 -1t27 -5v-325q-41 29 -97.5 57.5t-129.5 28.5q-61 0 -99.5 -16.5t-56.5 -26.5v-750h-334z" />
<glyph unicode="s" horiz-adv-x="854" d="M59 713q0 53 21.5 110.5t69 104.5t123 77.5t184.5 30.5q59 0 109 -9t90 -20.5t69 -23.5t41 -18v-248q-12 12 -33.5 30.5t-51.5 36t-70 29.5t-89 12q-37 0 -62.5 -10t-39.5 -25.5t-20.5 -34t-6.5 -32.5q0 -23 10.5 -40t25.5 -29.5t35.5 -21.5t39.5 -18l112 -43 q29 -12 61 -28.5t58 -40.5q37 -33 62.5 -83t25.5 -118q0 -59 -23.5 -117.5t-73.5 -104.5t-128 -75t-186 -29q-20 0 -57.5 2.5t-83.5 9.5t-99 22.5t-106 39.5v254q61 -41 131.5 -74.5t148.5 -33.5q74 0 105.5 35.5t31.5 72.5q0 27 -12 46.5t-30.5 32.5t-40 21.5t-38.5 14.5 l-92 33q-23 8 -58.5 25.5t-69 48t-58.5 75.5t-25 113z" />
<glyph unicode="t" horiz-adv-x="724" d="M-35 778l123 234h27v182l323 100v-282h244v-234h-244v-329q0 -43 2 -85t17.5 -77t50.5 -56.5t100 -21.5q41 0 78 7t66 17l-172 -237q-23 -4 -63 -11.5t-93 -7.5q-18 0 -47 2.5t-59.5 9.5t-63.5 23.5t-61 44.5q-29 29 -45.5 61t-23.5 63.5t-8 60t-1 53.5v483h-150z" />
<glyph unicode="u" d="M94 330v682h328v-527q0 -57 1 -90t7 -59q12 -53 49 -85t103 -32q47 0 97 16.5t97 51.5v725h326v-1012h-326v229l-158 -223q-59 -18 -106 -24.5t-76 -6.5q-88 0 -148.5 26t-94.5 58q-35 31 -54.5 66t-29 70.5t-12.5 69.5t-3 65z" />
<glyph unicode="v" horiz-adv-x="1110" d="M0 1012h360l203 -695l199 695h348l-375 -1012h-358z" />
<glyph unicode="w" horiz-adv-x="1622" d="M0 1012h346l119 -684l207 684h297l190 -684l135 684h328l-250 -1012h-366l-197 618l-191 -618h-368z" />
<glyph unicode="x" horiz-adv-x="1150" d="M0 0l371 532l-338 480h366l185 -271l184 271h348l-334 -475l371 -537h-377l-205 305l-204 -305h-367z" />
<glyph unicode="y" horiz-adv-x="1110" d="M0 1014h352l213 -703l213 703h332l-377 -994q-31 -78 -66.5 -153.5t-97 -135t-157 -97t-242.5 -37.5q-53 0 -93 5t-57 9l82 231q14 -4 34 -7t36 -3q27 0 55.5 9t56 29.5t51 54.5t42.5 85z" />
<glyph unicode="z" horiz-adv-x="1067" d="M70 0v236l501 536h-465v242h887v-242l-495 -530h559l-139 -242h-848z" />
<glyph unicode="{" horiz-adv-x="768" d="M47 627v207q55 2 91 18t56.5 48t29.5 84t12 126q2 57 11 121.5t60 120.5q31 37 70 56t88 28.5t111.5 10.5t142.5 1v-205q-59 -2 -101.5 -10t-72.5 -43q-27 -29 -31 -68t-6 -80q-2 -45 -6 -94t-23.5 -93t-59.5 -78t-110 -48v-10q66 -12 104 -42t57 -69t24.5 -81t9.5 -81 q0 -16 1 -37.5t3 -37.5q4 -59 22.5 -92t46 -48.5t63.5 -19.5t79 -6v-205q-78 0 -140.5 1t-112.5 10t-89 28.5t-70 56.5q-51 57 -61 129t-13 137q0 29 -1 46.5t-2 29t-2 19.5t-3 20q-10 53 -30.5 83t-46 44t-52 17.5t-49.5 5.5z" />
<glyph unicode="|" horiz-adv-x="468" d="M129 -512v2048h211v-2048h-211z" />
<glyph unicode="}" horiz-adv-x="768" d="M47 0v205q59 2 103.5 10t72.5 43q23 29 29 68t10 92q2 45 8 93t25.5 90t57.5 74t106 44v10q-27 4 -51.5 12.5t-55.5 32.5q-29 23 -46 49.5t-26.5 53t-12.5 51t-3 41.5q0 6 -1 22.5t-2 36t-2 36.5t-1 26q-4 55 -22.5 84.5t-47 45t-65.5 18.5t-76 5v205q80 0 142.5 -1 t111.5 -10.5t88 -28.5t72 -56q51 -55 60 -120t11 -122q2 -74 11.5 -126t30 -84t56.5 -48t91 -18v-207q-18 -2 -38.5 -4t-41 -9.5t-40 -21.5t-34.5 -41q-23 -39 -26.5 -86t-5.5 -103q-2 -33 -4.5 -67.5t-9.5 -69.5t-21.5 -67.5t-38.5 -61.5q-31 -37 -71 -56.5t-90 -28.5 t-112.5 -10t-140.5 -1z" />
<glyph unicode="~" horiz-adv-x="1492" d="M231 604q12 16 35 47t59.5 60.5t87 52t115.5 22.5q57 0 105.5 -17t114.5 -48l69 -33q33 -14 72 -28.5t78 -14.5q66 0 113.5 40t86.5 87l95 -182q-20 -20 -39 -40t-47 -42q-47 -37 -101.5 -60.5t-113.5 -23.5q-53 0 -101.5 18.5t-109.5 46.5l-60 29q-43 20 -80 33.5 t-78 13.5q-31 0 -53 -7t-44.5 -23.5t-47.5 -44t-57 -66.5z" />
<glyph unicode="&#xa1;" horiz-adv-x="598" d="M113 1292q0 72 48 122t124 50q78 0 126 -52t48 -120q0 -33 -12.5 -64.5t-34 -56t-54 -39t-71.5 -14.5q-82 0 -128 53t-46 121zM117 0l28 905l277 133l33 -1038h-338z" />
<glyph unicode="&#xa2;" horiz-adv-x="980" d="M51 500q0 139 58.5 250.5t162.5 181.5q55 37 97.5 52t83.5 26v254h231v-234q74 -4 130 -15t122 -40v-273q-12 10 -32.5 26.5t-51.5 32t-73 27t-95 11.5q-70 0 -124 -23.5t-91 -64.5t-55.5 -94.5t-18.5 -112.5q0 -82 29 -140.5t76 -95.5t106.5 -54t118.5 -17 q72 0 134.5 15t121.5 38l-143 -246q-47 -12 -89 -16t-65 -6v-244h-231v258q-35 10 -74 22.5t-90 42.5q-41 27 -84 67t-77 94t-55.5 123t-21.5 155z" />
<glyph unicode="&#xa3;" horiz-adv-x="1280" d="M0 569v248h281v62q0 37 4 87t19 106t49 113.5t93 110.5q51 45 107.5 72t109 41t98.5 17.5t79 3.5q82 0 160.5 -13.5t154.5 -44.5v-305q-14 12 -35.5 27.5t-53.5 31t-73 25.5t-94 10q-41 0 -93 -13t-99 -54q-61 -55 -71.5 -122t-10.5 -155h346v-248h-346v-305h690 l-154 -264h-1040l160 264v305h-281z" />
<glyph unicode="&#xa4;" horiz-adv-x="1366" d="M51 221l162 160q-12 18 -29.5 46t-32 66.5t-24.5 88t-10 112.5t10 113.5t24.5 88.5t32 66.5t29.5 47.5l-158 157l156 158l158 -158q20 12 50 29.5t67.5 32t87 25t110.5 10.5t110.5 -10.5t88.5 -25t66.5 -31.5t45.5 -30l160 158l160 -158l-162 -157q12 -18 28.5 -47 t32 -68t25.5 -88t10 -111q0 -66 -10 -116t-25.5 -87.5t-33 -66.5t-29.5 -47l162 -162l-160 -158l-160 162q-18 -12 -46.5 -28.5t-66.5 -31t-86.5 -24.5t-109.5 -10t-111.5 10t-89.5 25.5t-67.5 32t-46.5 28.5l-160 -160zM324 694q0 -82 29.5 -148.5t80.5 -114.5t115.5 -73.5 t136.5 -25.5q74 0 138.5 26.5t112.5 75.5t75.5 116.5t27.5 147.5q0 82 -30.5 149.5t-80.5 114t-114.5 72t-132.5 25.5t-132.5 -24.5t-114.5 -72t-80.5 -115t-30.5 -153.5z" />
<glyph unicode="&#xa5;" horiz-adv-x="1449" d="M20 1399h426l291 -531l293 531h400l-285 -486h172v-247h-316l-86 -148v-39h400l2 -248h-402v-231h-380v231h-404v248h404v39l-86 148h-318v247h174z" />
<glyph unicode="&#xa6;" horiz-adv-x="468" d="M129 358h211v-716h-211v716zM129 666v716h211v-716h-211z" />
<glyph unicode="&#xa7;" horiz-adv-x="1024" d="M43 504q0 55 18.5 108.5t51 100.5t78 85t100.5 62q-18 16 -42 41t-45.5 58.5t-35.5 75.5t-14 95q0 63 26.5 126t79.5 113t135 82t193 32q72 0 156.5 -15.5t173.5 -56.5v-315q-53 59 -114 92t-138 33q-78 0 -113 -39t-35 -80q0 -29 11.5 -50.5t28.5 -38t36.5 -29.5 t38.5 -23l110 -58q49 -25 92.5 -59.5t77 -77.5t53 -96.5t19.5 -114.5q0 -72 -26.5 -137.5t-73.5 -116.5q-35 -39 -69 -61.5t-62 -38.5q16 -16 36.5 -40t39 -55.5t30.5 -70.5t12 -88q0 -61 -25.5 -128t-79.5 -122t-137 -91t-198 -36q-88 0 -172 17.5t-162 54.5v315 q20 -16 47 -36.5t59 -39t70.5 -31t81.5 -12.5q82 0 118 43t36 86q0 31 -11.5 53.5t-29.5 39t-39.5 29.5t-42.5 24l-68 34q-59 29 -109 62t-87 75t-58.5 96t-21.5 124zM360 551q0 -37 15.5 -67.5t40 -56.5t55 -46.5t61.5 -36.5q53 31 92.5 78t39.5 106q0 45 -20.5 79 t-48.5 58.5t-56.5 40t-42.5 21.5q-47 -20 -74 -46t-41 -50.5t-17.5 -46t-3.5 -33.5z" />
<glyph unicode="&#xa8;" horiz-adv-x="598" d="M-100 1294q0 70 50 112t118 42q66 0 117 -41t51 -113t-51.5 -112.5t-116.5 -40.5q-66 0 -117 41t-51 112zM362 1294q0 72 51.5 113t116.5 41q68 0 118 -42t50 -112q0 -72 -51 -112.5t-117 -40.5q-68 0 -118 42t-50 111z" />
<glyph unicode="&#xa9;" horiz-adv-x="1705" d="M125 723q0 158 58.5 291t157.5 230t231.5 152.5t279.5 55.5q158 0 292 -58.5t231.5 -157.5t152.5 -231.5t55 -279.5q0 -152 -56.5 -285t-154.5 -232t-231 -156.5t-289 -57.5q-143 0 -274.5 53t-231.5 149.5t-160.5 230.5t-60.5 296zM190 723q0 -139 52.5 -261t142.5 -211 t210 -140.5t257 -51.5q141 0 263 52.5t211 142.5t140.5 211t51.5 260q0 135 -50.5 256t-138.5 211t-210 142t-263 52t-262 -52t-211 -142t-141.5 -211t-51.5 -258zM371 723q0 104 35.5 196.5t100 160t157 106.5t204.5 39q84 0 148.5 -19.5t113 -48.5t81 -59.5t53.5 -50.5 l-148 -140q-16 16 -37.5 37t-51.5 39t-69.5 30.5t-89.5 12.5q-68 0 -122 -23.5t-92 -64.5t-58.5 -95.5t-20.5 -115.5q0 -68 23 -123t61.5 -94t93 -60.5t117.5 -21.5q51 0 92.5 12.5t71 29.5t50 36.5t32.5 34.5l148 -133q-84 -92 -181.5 -135.5t-214.5 -43.5q-115 0 -207 38 t-156.5 104.5t-99 156.5t-34.5 195z" />
<glyph unicode="&#xaa;" horiz-adv-x="724" d="M37 979q0 45 14.5 79t36 57.5t44 37.5t38.5 21q70 29 174 28q31 0 56.5 -2t39.5 -4q-4 61 -35.5 93t-107.5 32q-61 0 -110.5 -16.5t-100.5 -38.5l102 174q14 6 38 10t48.5 7t48 4t42.5 1q14 0 38.5 -1t52 -6t57.5 -16.5t56 -31.5q27 -23 42.5 -47.5t23.5 -49t9 -46 t1 -39.5v-262v-74t1 -47.5t2 -29.5t1 -21h-205q-2 8 -3 24t-1 31.5v27.5v13l-84 -105q-10 -4 -29.5 -6t-39.5 -2q-59 0 -109 14q-76 25 -108.5 78.5t-32.5 112.5zM244 987q0 -35 26.5 -56.5t73.5 -21.5q31 0 55.5 7.5t40.5 13.5v141q-23 4 -30 4h-27q-55 0 -97 -18.5 t-42 -69.5z" />
<glyph unicode="&#xab;" horiz-adv-x="980" d="M10 545l221 319h287l-223 -319l223 -324h-285zM463 545l223 319h285l-223 -319l223 -324h-285z" />
<glyph unicode="&#xac;" horiz-adv-x="1366" d="M0 496v211h1366v-707h-211v496h-1155z" />
<glyph unicode="&#xad;" horiz-adv-x="768" d="M4 428l154 225h606l-154 -225h-606z" />
<glyph unicode="&#xae;" horiz-adv-x="1705" d="M125 723q0 158 58.5 291t157.5 230t231.5 152.5t279.5 55.5q158 0 292 -58.5t231.5 -157.5t152.5 -231.5t55 -279.5q0 -152 -56.5 -285t-154.5 -232t-231 -156.5t-289 -57.5q-141 0 -273.5 53t-232.5 149.5t-160.5 230.5t-60.5 296zM190 723q0 -139 52.5 -261t142.5 -211 t211 -140.5t258 -51.5q141 0 262 52.5t210 142.5t140.5 211t51.5 260q0 135 -50.5 255t-138.5 211t-210 143t-263 52t-262 -52t-211 -142t-141.5 -211t-51.5 -258zM528 264v930h367q61 -2 119.5 -13.5t104.5 -39t74 -73.5t28 -118q0 -61 -22.5 -101t-53.5 -64.5t-59.5 -37 t-41.5 -16.5q20 -10 39 -21.5t33 -31t25.5 -51t19.5 -80.5q14 -86 27.5 -152.5t48.5 -130.5h-223q-4 12 -16.5 42t-22.5 89q0 8 -3 27.5t-6 42t-6.5 42t-5.5 28.5q-10 49 -25.5 76.5t-41 40t-66.5 14.5t-98 2v-404h-195zM723 823h117q39 0 72.5 3t59 15.5t40 35t14.5 61.5 q0 68 -45 87t-129 19h-129v-221z" />
<glyph unicode="&#xaf;" horiz-adv-x="598" d="M0 1194v209h598v-209h-598z" />
<glyph unicode="&#xb0;" horiz-adv-x="724" d="M10 1194q0 74 28 137.5t76 111.5t111 75.5t137 27.5t137.5 -27.5t111.5 -75.5t76 -111.5t28 -137.5t-28 -138.5t-76 -112.5t-111.5 -75.5t-137.5 -27.5t-137 27.5t-111 75.5t-76 112.5t-28 138.5zM215 1192q0 -61 43 -104.5t104 -43.5q59 0 102.5 43t43.5 105 q0 61 -43.5 104t-102.5 43q-61 0 -104 -43t-43 -104z" />
<glyph unicode="&#xb1;" horiz-adv-x="1366" d="M86 0v211h1194v-211h-1194zM86 766v211h494v461h211v-461h489v-211h-489v-463h-211v463h-494z" />
<glyph unicode="&#xb2;" horiz-adv-x="854" d="M113 494v174l258 282q43 49 66.5 83t23.5 79q0 16 -5 36.5t-19.5 38t-38 29t-60.5 11.5q-70 0 -120 -38t-85 -75v227q53 31 122 53.5t146 22.5q80 0 137.5 -23.5t96.5 -62.5t57.5 -89t18.5 -101q0 -43 -10.5 -78t-27 -64.5t-37 -55t-40.5 -48.5l-197 -223h389l-126 -178 h-549z" />
<glyph unicode="&#xb3;" horiz-adv-x="854" d="M127 537v213q41 -33 78 -51.5t66.5 -26.5t50 -9t26.5 -1q68 0 100.5 34.5t32.5 75.5q0 43 -21.5 66.5t-52 35t-62.5 13.5t-50 2h-12.5t-22.5 -1t-24.5 -1h-14.5l111 160q27 0 53 8q27 10 43 32.5t16 51.5q0 35 -25.5 62.5t-80.5 27.5q-57 0 -104.5 -27.5t-88.5 -71.5v216 q59 35 123 53t131 18q133 0 209 -68.5t76 -168.5q0 -49 -16.5 -83t-38 -57.5t-44 -37t-36.5 -19.5q16 -4 36.5 -10t43.5 -21q6 -4 23.5 -16t36 -35.5t32.5 -58.5t14 -82q0 -61 -25.5 -112.5t-70.5 -89.5t-107.5 -59.5t-138.5 -21.5q-57 0 -128.5 15.5t-137.5 44.5z" />
<glyph unicode="&#xb4;" horiz-adv-x="598" d="M59 1104v221l480 184v-225z" />
<glyph unicode="&#xb5;" d="M92 -428v1440h326v-572q0 -102 33.5 -161.5t130.5 -59.5q47 0 97 16.5t97 51.5v725h326v-1012h-326v229l-160 -223q-12 -6 -32.5 -14t-55.5 -8t-58.5 10t-41.5 37q-4 4 -7 10t-7 10v-479h-322z" />
<glyph unicode="&#xb6;" horiz-adv-x="1366" d="M174 1020q0 113 38 190.5t93 128.5q43 39 88 59.5t88 31t82 13.5t70 3h489v-135h-71v-1653h-146v1653h-266v-1653h-145v969q-31 6 -78 20.5t-99 52.5q-72 57 -107.5 142.5t-35.5 177.5z" />
<glyph unicode="&#xb7;" horiz-adv-x="512" d="M84 543q0 31 11 61.5t34 55t55.5 40t73.5 15.5q78 0 125 -52t47 -122q0 -72 -49 -122t-123 -50q-78 0 -126 52t-48 122z" />
<glyph unicode="&#xb8;" horiz-adv-x="598" d="M72 -418l186 338h268l-243 -338h-211z" />
<glyph unicode="&#xb9;" horiz-adv-x="854" d="M197 1053v190l376 172v-921h-235v626z" />
<glyph unicode="&#xba;" horiz-adv-x="768" d="M29 1114q0 74 25.5 138.5t71.5 110.5t112.5 72.5t148.5 26.5q76 0 139.5 -22.5t110.5 -66.5t73.5 -106.5t26.5 -142.5q0 -68 -20.5 -131t-63.5 -111t-110.5 -78t-161.5 -30t-160.5 30t-109.5 78t-62.5 108.5t-19.5 123.5zM258 1118q0 -39 6 -73.5t21.5 -61.5t39 -43 t60.5 -16q47 0 72.5 26.5t37 61.5t13.5 67.5t2 42.5q0 23 -3 55.5t-16.5 63.5t-38 52.5t-67.5 21.5q-47 0 -72.5 -25.5t-38 -59.5t-14.5 -67t-2 -45z" />
<glyph unicode="&#xbb;" horiz-adv-x="980" d="M10 221l223 320l-223 323h285l223 -323l-223 -320h-285zM463 221l223 320l-223 323h287l221 -323l-221 -320h-287z" />
<glyph unicode="&#xbc;" horiz-adv-x="1961" d="M197 1055v190l376 170v-919h-235v624zM516 0l688 1399h217l-690 -1399h-215zM1145 201v98l358 606h285v-530h158l-121 -174h-37v-201h-225v201h-418zM1401 375h162v299z" />
<glyph unicode="&#xbd;" horiz-adv-x="1961" d="M197 1055v190l376 172v-921h-235v624zM473 0l688 1399h217l-690 -1399h-215zM1223 0v174l256 283q43 49 66.5 82.5t23.5 78.5q0 16 -5 37t-19.5 38.5t-37 28.5t-59.5 11q-72 0 -121 -38t-86 -74v227q53 31 122 53.5t146 22.5q80 0 137.5 -23.5t96.5 -62.5t57.5 -89.5 t18.5 -101.5q0 -43 -10.5 -77.5t-27 -64.5t-37 -55.5t-40.5 -48.5l-197 -223h389l-127 -178h-546z" />
<glyph unicode="&#xbe;" horiz-adv-x="1961" d="M127 537v213q41 -33 78 -51.5t66.5 -26.5t50 -9t26.5 -1q68 0 100.5 34.5t32.5 75.5q0 43 -21.5 66.5t-52 35t-62.5 13.5t-50 2h-12.5t-22.5 -1t-24.5 -1h-14.5l111 160q27 0 53 8q27 10 43 32.5t16 51.5q0 35 -25.5 62.5t-80.5 27.5q-57 0 -104.5 -27.5t-88.5 -71.5v216 q59 35 123 53t131 18q133 0 209 -68.5t76 -168.5q0 -49 -16.5 -83t-38 -57.5t-44 -37t-36.5 -19.5q16 -4 36.5 -10t43.5 -21q6 -4 23.5 -16t36 -35.5t32.5 -58.5t14 -82q0 -61 -25.5 -112.5t-70.5 -89.5t-107.5 -59.5t-138.5 -21.5q-57 0 -128.5 15.5t-137.5 44.5zM553 0 l688 1399h217l-690 -1399h-215zM1145 201v98l358 606h285v-530h158l-121 -174h-37v-201h-225v201h-418zM1401 375h162v299z" />
<glyph unicode="&#xbf;" horiz-adv-x="894" d="M10 354q0 133 82 232q31 37 64.5 59.5t67.5 35.5t62.5 18.5t51.5 9.5v188l311 143v-481q-47 -4 -101 -9t-102 -28q-8 -4 -23 -14t-29.5 -25.5t-26 -39t-11.5 -56.5q0 -27 10.5 -52.5t33 -47t57.5 -34.5t84 -13q51 0 94 11t80 28.5t67.5 38t53.5 36.5v-299 q-23 -10 -58 -25.5t-81 -28.5t-103 -22.5t-125 -9.5q-121 0 -208 34t-142.5 89t-82 124t-26.5 138zM322 1292q0 74 49 123t123 49q39 0 71.5 -14t55 -39t35 -55.5t12.5 -63.5t-12.5 -64.5t-35 -56t-54 -39t-72.5 -14.5q-78 0 -125 51t-47 123z" />
<glyph unicode="&#xc0;" horiz-adv-x="1492" d="M0 0l569 1446h367l557 -1446h-399l-99 289h-516l-104 -289h-375zM455 1712v225l485 -184v-221zM557 512h363l-154 457q-8 25 -12 38t-9 42l-13 -45.5t-9 -26.5z" />
<glyph unicode="&#xc1;" horiz-adv-x="1492" d="M0 0l569 1446h367l557 -1446h-399l-99 289h-516l-104 -289h-375zM557 512h363l-154 457q-8 25 -12 38t-9 42l-13 -45.5t-9 -26.5zM559 1532v221l479 184v-225z" />
<glyph unicode="&#xc2;" horiz-adv-x="1492" d="M0 0l569 1446h367l557 -1446h-399l-99 289h-516l-104 -289h-375zM487 1532v227l258 189l267 -189v-227l-267 184zM557 512h363l-154 457q-8 25 -12 38t-9 42l-13 -45.5t-9 -26.5z" />
<glyph unicode="&#xc3;" horiz-adv-x="1492" d="M0 0l569 1446h367l557 -1446h-399l-99 289h-516l-104 -289h-375zM453 1583v195q10 12 23 25.5t32.5 25.5t46.5 20.5t63 8.5q41 0 75 -11.5t63 -23.5q35 -14 64.5 -23.5t64.5 -9.5q66 0 99.5 22.5t55.5 45.5v-205q-18 -20 -51 -44t-104 -24q-43 0 -77 10.5t-95 34.5 q-23 8 -47.5 14.5t-55.5 6.5q-63 0 -100 -24.5t-57 -43.5zM557 512h363l-154 457q-8 25 -12 38t-9 42l-13 -45.5t-9 -26.5z" />
<glyph unicode="&#xc4;" horiz-adv-x="1492" d="M0 0l569 1446h367l557 -1446h-399l-99 289h-516l-104 -289h-375zM350 1722q0 70 50.5 112t117.5 42q66 0 117 -41t51 -113t-51 -112.5t-117 -40.5t-117 41t-51 112zM557 512h363l-154 457q-8 25 -12 38t-9 42l-13 -45.5t-9 -26.5zM813 1722q0 72 51 113t117 41 q68 0 118 -42t50 -112q0 -72 -51 -112.5t-117 -40.5q-68 0 -118 42t-50 111z" />
<glyph unicode="&#xc5;" horiz-adv-x="1492" d="M0 0l569 1446h367l557 -1446h-399l-99 289h-516l-104 -289h-375zM539 1747q0 43 14 81t42 66.5t66 46t87 17.5q94 0 152 -60.5t58 -148.5q0 -43 -14 -81t-42 -67.5t-65.5 -47t-86.5 -17.5t-89 17.5t-67 47t-41 67.5t-14 79zM557 512h363l-154 457q-8 25 -12 38t-9 42 l-13 -45.5t-9 -26.5zM643 1745q0 -45 28.5 -75t76.5 -30q45 0 75.5 30t30.5 77q0 45 -28.5 74.5t-75.5 29.5q-49 0 -78 -29.5t-29 -76.5z" />
<glyph unicode="&#xc6;" horiz-adv-x="2134" d="M0 0l883 1446h1140v-283h-561v-276h482v-281h-482v-317h674l-168 -289h-870v340h-494l-201 -340h-403zM758 604h340v580z" />
<glyph unicode="&#xc7;" horiz-adv-x="1366" d="M63 707q0 154 53.5 294t160 247.5t266 171t370.5 63.5q125 0 220.5 -18.5t166.5 -41.5v-321q-18 12 -49.5 30.5t-74.5 36t-98.5 29.5t-119.5 12q-121 0 -214 -38.5t-156.5 -105.5t-97 -156t-33.5 -187q0 -104 35.5 -194.5t104.5 -158t167 -105.5t225 -38q98 0 192.5 21.5 t184.5 56.5l-176 -303q-41 -10 -111.5 -24.5t-191.5 -14.5q-195 0 -347.5 57.5t-259 158t-162 235.5t-55.5 293zM514 -469l201 379h291l-256 -379h-236z" />
<glyph unicode="&#xc8;" horiz-adv-x="1150" d="M109 0v1446h938v-285h-562v-276h482v-283h-482v-315h670l-164 -287h-882zM283 1712v225l485 -184v-221z" />
<glyph unicode="&#xc9;" horiz-adv-x="1150" d="M109 0v1446h938v-285h-562v-276h482v-283h-482v-315h670l-164 -287h-882zM387 1532v221l479 184v-225z" />
<glyph unicode="&#xca;" horiz-adv-x="1150" d="M109 0v1446h938v-285h-562v-276h482v-283h-482v-315h670l-164 -287h-882zM315 1532v227l258 189l267 -189v-227l-267 184z" />
<glyph unicode="&#xcb;" horiz-adv-x="1150" d="M109 0v1446h938v-285h-562v-276h482v-283h-482v-315h670l-164 -287h-882zM176 1722q0 70 50 112t118 42q66 0 117 -41t51 -113t-51 -112.5t-117 -40.5t-117 41t-51 112zM639 1722q0 72 51 113t117 41q68 0 118 -42t50 -112q0 -72 -51.5 -112.5t-116.5 -40.5 q-68 0 -118 42t-50 111z" />
<glyph unicode="&#xcc;" horiz-adv-x="598" d="M6 1712v225l486 -184v-221zM109 0v1446h378v-1446h-378z" />
<glyph unicode="&#xcd;" horiz-adv-x="598" d="M109 0v1446h378v-1446h-378zM111 1532v221l479 184v-225z" />
<glyph unicode="&#xce;" horiz-adv-x="598" d="M39 1532v227l258 189l266 -189v-227l-266 184zM109 0v1446h378v-1446h-378z" />
<glyph unicode="&#xcf;" horiz-adv-x="598" d="M-100 1722q0 70 50 112t118 42q66 0 117 -41t51 -113t-51.5 -112.5t-116.5 -40.5q-66 0 -117 41t-51 112zM109 0v1446h378v-1446h-378zM362 1722q0 72 51.5 113t116.5 41q68 0 118 -42t50 -112q0 -72 -51 -112.5t-117 -40.5q-68 0 -118 42t-50 111z" />
<glyph unicode="&#xd0;" horiz-adv-x="1536" d="M4 647v217h105v582h630q154 0 287 -46t232.5 -136t157 -223.5t57.5 -305.5q0 -156 -52.5 -293t-150.5 -235q-74 -74 -154 -116t-156.5 -62.5t-145.5 -24.5t-120 -4h-585v647h-105zM483 279h107q59 0 121.5 6t128.5 34q70 31 114.5 79t71.5 102.5t37 113t10 111.5 q0 111 -33.5 192.5t-94 137t-141.5 83t-173 27.5h-148v-301h320v-217h-320v-368z" />
<glyph unicode="&#xd1;" horiz-adv-x="1622" d="M109 0v1446h331l707 -784v784h364v-1446h-243l-793 879v-879h-366zM516 1583v195q10 12 23.5 25.5t33 25.5t46 20.5t63.5 8.5q41 0 75 -11.5t62 -23.5q35 -14 64.5 -23.5t64.5 -9.5q66 0 99.5 22.5t56.5 45.5v-205q-18 -20 -51 -44t-105 -24q-43 0 -76.5 10.5t-95.5 34.5 q-23 8 -47 14.5t-55 6.5q-63 0 -100 -24.5t-58 -43.5z" />
<glyph unicode="&#xd2;" horiz-adv-x="1705" d="M63 723q0 160 54.5 298t157 240.5t250 162t331.5 59.5q186 0 333.5 -60.5t248 -164t154 -239.5t53.5 -288q0 -150 -51.5 -289t-151 -245.5t-244.5 -170t-334 -63.5q-188 0 -337.5 57.5t-252 160t-157 240.5t-54.5 302zM463 725q0 -100 26.5 -186t77.5 -150.5t124 -101.5 t165 -37q100 0 174 42t121 109.5t70.5 151.5t23.5 166q0 104 -26.5 193t-76.5 153.5t-123 101.5t-163 37t-161.5 -35.5t-124 -100t-80 -153t-27.5 -190.5zM561 1712v225l486 -184v-221z" />
<glyph unicode="&#xd3;" horiz-adv-x="1705" d="M63 723q0 160 54.5 298t157 240.5t250 162t331.5 59.5q186 0 333.5 -60.5t248 -164t154 -239.5t53.5 -288q0 -150 -51.5 -289t-151 -245.5t-244.5 -170t-334 -63.5q-188 0 -337.5 57.5t-252 160t-157 240.5t-54.5 302zM463 725q0 -100 26.5 -186t77.5 -150.5t124 -101.5 t165 -37q100 0 174 42t121 109.5t70.5 151.5t23.5 166q0 104 -26.5 193t-76.5 153.5t-123 101.5t-163 37t-161.5 -35.5t-124 -100t-80 -153t-27.5 -190.5zM666 1532v221l479 184v-225z" />
<glyph unicode="&#xd4;" horiz-adv-x="1705" d="M63 723q0 160 54.5 298t157 240.5t250 162t331.5 59.5q186 0 333.5 -60.5t248 -164t154 -239.5t53.5 -288q0 -150 -51.5 -289t-151 -245.5t-244.5 -170t-334 -63.5q-188 0 -337.5 57.5t-252 160t-157 240.5t-54.5 302zM463 725q0 -100 26.5 -186t77.5 -150.5t124 -101.5 t165 -37q100 0 174 42t121 109.5t70.5 151.5t23.5 166q0 104 -26.5 193t-76.5 153.5t-123 101.5t-163 37t-161.5 -35.5t-124 -100t-80 -153t-27.5 -190.5zM594 1532v227l258 189l266 -189v-227l-266 184z" />
<glyph unicode="&#xd5;" horiz-adv-x="1705" d="M63 723q0 160 54.5 298t157 240.5t250 162t331.5 59.5q186 0 333.5 -60.5t248 -164t154 -239.5t53.5 -288q0 -150 -51.5 -289t-151 -245.5t-244.5 -170t-334 -63.5q-188 0 -337.5 57.5t-252 160t-157 240.5t-54.5 302zM463 725q0 -100 26.5 -186t77.5 -150.5t124 -101.5 t165 -37q100 0 174 42t121 109.5t70.5 151.5t23.5 166q0 104 -26.5 193t-76.5 153.5t-123 101.5t-163 37t-161.5 -35.5t-124 -100t-80 -153t-27.5 -190.5zM559 1583v195q10 12 23.5 25.5t33 25.5t46 20.5t63.5 8.5q41 0 75 -11.5t62 -23.5q35 -14 64.5 -23.5t64.5 -9.5 q66 0 99.5 22.5t56.5 45.5v-205q-18 -20 -51 -44t-105 -24q-43 0 -76.5 10.5t-95.5 34.5q-23 8 -47 14.5t-55 6.5q-63 0 -100 -24.5t-58 -43.5z" />
<glyph unicode="&#xd6;" horiz-adv-x="1705" d="M63 723q0 160 54.5 298t157 240.5t250 162t331.5 59.5q186 0 333.5 -60.5t248 -164t154 -239.5t53.5 -288q0 -150 -51.5 -289t-151 -245.5t-244.5 -170t-334 -63.5q-188 0 -337.5 57.5t-252 160t-157 240.5t-54.5 302zM463 725q0 -100 26.5 -186t77.5 -150.5t124 -101.5 t165 -37q100 0 174 42t121 109.5t70.5 151.5t23.5 166q0 104 -26.5 193t-76.5 153.5t-123 101.5t-163 37t-161.5 -35.5t-124 -100t-80 -153t-27.5 -190.5zM467 1722q0 70 50 112t118 42q66 0 117 -41t51 -113t-51.5 -112.5t-116.5 -40.5q-66 0 -117 41t-51 112zM930 1722 q0 72 51 113t117 41q68 0 118 -42t50 -112q0 -72 -51.5 -112.5t-116.5 -40.5q-68 0 -118 42t-50 111z" />
<glyph unicode="&#xd7;" horiz-adv-x="1366" d="M139 205l391 393l-391 393l152 152l391 -393l393 393l152 -152l-393 -393l393 -393l-152 -152l-393 393l-391 -393z" />
<glyph unicode="&#xd8;" horiz-adv-x="1705" d="M-2 61l213 203q-76 104 -112 215t-36 240q0 156 54.5 295t157 243.5t250 165t335.5 60.5q53 0 105.5 -5t105.5 -18q113 -25 177.5 -63.5t94.5 -61.5l218 209l149 -162l-211 -200q16 -23 38 -52.5t44 -82.5q29 -66 46.5 -144t17.5 -170q0 -156 -54.5 -296t-156 -245.5 t-247 -167t-327.5 -61.5q-53 0 -105.5 5t-105.5 18q-117 25 -183.5 63.5t-98.5 61.5l-222 -213zM457 743q0 -78 14 -129t25 -79l612 579q-12 10 -34.5 26.5t-53.5 32t-71 25.5t-91 10q-90 0 -163.5 -36.5t-126 -100t-82 -148.5t-29.5 -180zM608 338q12 -12 33 -27.5 t51.5 -31t70.5 -25.5t93 -10q102 0 178 43t125 111.5t72.5 152.5t23.5 164q0 74 -13 123t-23 77z" />
<glyph unicode="&#xd9;" horiz-adv-x="1536" d="M109 545v901h376v-825q0 -78 9.5 -146.5t40 -122t87 -84t150.5 -30.5q86 0 140.5 27.5t86 75.5t43 112.5t11.5 138.5v854h374v-873q0 -68 -10 -161t-57 -181q-43 -78 -108.5 -130t-143.5 -82.5t-166 -43t-176 -12.5q-92 0 -167 12.5t-133 33t-101 44t-74 47.5 q-68 51 -104.5 113.5t-54 123t-20.5 116t-3 92.5zM475 1712v225l486 -184v-221z" />
<glyph unicode="&#xda;" horiz-adv-x="1536" d="M109 545v901h376v-825q0 -78 9.5 -146.5t40 -122t87 -84t150.5 -30.5q86 0 140.5 27.5t86 75.5t43 112.5t11.5 138.5v854h374v-873q0 -68 -10 -161t-57 -181q-43 -78 -108.5 -130t-143.5 -82.5t-166 -43t-176 -12.5q-92 0 -167 12.5t-133 33t-101 44t-74 47.5 q-68 51 -104.5 113.5t-54 123t-20.5 116t-3 92.5zM580 1532v221l479 184v-225z" />
<glyph unicode="&#xdb;" horiz-adv-x="1536" d="M109 545v901h376v-825q0 -78 9.5 -146.5t40 -122t87 -84t150.5 -30.5q86 0 140.5 27.5t86 75.5t43 112.5t11.5 138.5v854h374v-873q0 -68 -10 -161t-57 -181q-43 -78 -108.5 -130t-143.5 -82.5t-166 -43t-176 -12.5q-92 0 -167 12.5t-133 33t-101 44t-74 47.5 q-68 51 -104.5 113.5t-54 123t-20.5 116t-3 92.5zM508 1532v227l258 189l266 -189v-227l-266 184z" />
<glyph unicode="&#xdc;" horiz-adv-x="1536" d="M109 545v901h376v-825q0 -78 9.5 -146.5t40 -122t87 -84t150.5 -30.5q86 0 140.5 27.5t86 75.5t43 112.5t11.5 138.5v854h374v-873q0 -68 -10 -161t-57 -181q-43 -78 -108.5 -130t-143.5 -82.5t-166 -43t-176 -12.5q-92 0 -167 12.5t-133 33t-101 44t-74 47.5 q-68 51 -104.5 113.5t-54 123t-20.5 116t-3 92.5zM369 1722q0 70 50 112t118 42q66 0 117 -41t51 -113t-51.5 -112.5t-116.5 -40.5q-66 0 -117 41t-51 112zM831 1722q0 72 51.5 113t116.5 41q68 0 118 -42t50 -112q0 -72 -51 -112.5t-117 -40.5q-68 0 -118 42t-50 111z" />
<glyph unicode="&#xdd;" horiz-adv-x="1449" d="M0 1446h426l311 -567l314 567h399l-535 -916v-530h-380v530zM537 1532v221l479 184v-225z" />
<glyph unicode="&#xde;" horiz-adv-x="1280" d="M109 0v1446h376v-264h201q45 0 95 -2t103.5 -13.5t105.5 -34t102 -63.5q59 -51 102 -131t43 -188q0 -66 -18.5 -127.5t-53.5 -110.5q-51 -74 -119.5 -115t-137 -60.5t-132 -23.5t-104.5 -4h-187v-309h-376zM485 342l150 213q29 0 76 7t88 42q25 23 42 56.5t17 74.5 q0 51 -18.5 86t-49 55.5t-68.5 28.5t-75 8h-162v-571z" />
<glyph unicode="&#xdf;" horiz-adv-x="1236" d="M92 0v874q2 86 4 141.5t15 108.5q27 104 86 174t134 110t158.5 56.5t157.5 16.5q115 0 201 -30t142.5 -79t84 -113.5t27.5 -132.5q0 -82 -31 -140t-72 -93q-33 -29 -67.5 -46.5t-65.5 -29.5q78 -14 138.5 -46t107.5 -95q41 -53 57.5 -118.5t16.5 -133.5q0 -82 -25.5 -163 t-78 -144.5t-135.5 -102.5t-195 -39q-70 0 -122 12.5t-95 26.5v258q16 -12 48.5 -28.5t82.5 -16.5q88 0 136 61.5t48 143.5q0 51 -19.5 98.5t-58.5 82t-95 56t-130 21.5q-14 0 -27.5 -1t-27.5 -1l167 238q68 18 92.5 65t24.5 88q0 78 -47 123t-117 45q-55 0 -89 -23.5 t-50 -45.5q-35 -49 -42 -116t-7 -140v-922h-332z" />
<glyph unicode="&#xe0;" horiz-adv-x="1067" d="M31 289q0 74 24.5 126t58 88t68.5 55.5t56 29.5q63 27 131.5 36t138.5 9q49 0 89 -4t62 -8q-2 37 -11 72.5t-32.5 65t-66.5 47t-115 17.5q-49 0 -95 -8t-88 -20.5t-77 -26.5t-59 -25l149 261q68 16 135.5 24t137.5 8q27 0 65.5 -2t81.5 -11t87 -25.5t83 -47.5 q43 -35 66.5 -72.5t35 -75.5t13.5 -72t2 -60v-422q0 -70 2 -135.5t6 -112.5h-313q-4 35 -4 67.5t-3 88.5l-137 -170q-29 -4 -53.5 -7.5t-58.5 -3.5q-135 0 -211 40t-113 93.5t-46 105.5t-9 75zM225 1284v225l486 -184v-221zM346 301q0 -53 40 -88t122 -35q49 0 89 12.5 t62 22.5v223q-18 2 -48.5 4t-47.5 2q-66 0 -104 -12q-37 -10 -59.5 -26.5t-34 -35t-15.5 -37t-4 -30.5z" />
<glyph unicode="&#xe1;" horiz-adv-x="1067" d="M31 289q0 74 24.5 126t58 88t68.5 55.5t56 29.5q63 27 131.5 36t138.5 9q49 0 89 -4t62 -8q-2 37 -11 72.5t-32.5 65t-66.5 47t-115 17.5q-49 0 -95 -8t-88 -20.5t-77 -26.5t-59 -25l149 261q68 16 135.5 24t137.5 8q27 0 65.5 -2t81.5 -11t87 -25.5t83 -47.5 q43 -35 66.5 -72.5t35 -75.5t13.5 -72t2 -60v-422q0 -70 2 -135.5t6 -112.5h-313q-4 35 -4 67.5t-3 88.5l-137 -170q-29 -4 -53.5 -7.5t-58.5 -3.5q-135 0 -211 40t-113 93.5t-46 105.5t-9 75zM346 301q0 -53 40 -88t122 -35q49 0 89 12.5t62 22.5v223q-18 2 -48.5 4 t-47.5 2q-66 0 -104 -12q-37 -10 -59.5 -26.5t-34 -35t-15.5 -37t-4 -30.5zM362 1104v221l480 184v-225z" />
<glyph unicode="&#xe2;" horiz-adv-x="1067" d="M31 289q0 74 24.5 126t58 88t68.5 55.5t56 29.5q63 27 131.5 36t138.5 9q49 0 89 -4t62 -8q-2 37 -11 72.5t-32.5 65t-66.5 47t-115 17.5q-49 0 -95 -8t-88 -20.5t-77 -26.5t-59 -25l149 261q68 16 135.5 24t137.5 8q27 0 65.5 -2t81.5 -11t87 -25.5t83 -47.5 q43 -35 66.5 -72.5t35 -75.5t13.5 -72t2 -60v-422q0 -70 2 -135.5t6 -112.5h-313q-4 35 -4 67.5t-3 88.5l-137 -170q-29 -4 -53.5 -7.5t-58.5 -3.5q-135 0 -211 40t-113 93.5t-46 105.5t-9 75zM275 1104v227l258 189l266 -189v-227l-266 184zM346 301q0 -53 40 -88t122 -35 q49 0 89 12.5t62 22.5v223q-18 2 -48.5 4t-47.5 2q-66 0 -104 -12q-37 -10 -59.5 -26.5t-34 -35t-15.5 -37t-4 -30.5z" />
<glyph unicode="&#xe3;" horiz-adv-x="1067" d="M31 289q0 74 24.5 126t58 88t68.5 55.5t56 29.5q63 27 131.5 36t138.5 9q49 0 89 -4t62 -8q-2 37 -11 72.5t-32.5 65t-66.5 47t-115 17.5q-49 0 -95 -8t-88 -20.5t-77 -26.5t-59 -25l149 261q68 16 135.5 24t137.5 8q27 0 65.5 -2t81.5 -11t87 -25.5t83 -47.5 q43 -35 66.5 -72.5t35 -75.5t13.5 -72t2 -60v-422q0 -70 2 -135.5t6 -112.5h-313q-4 35 -4 67.5t-3 88.5l-137 -170q-29 -4 -53.5 -7.5t-58.5 -3.5q-135 0 -211 40t-113 93.5t-46 105.5t-9 75zM240 1155v195q10 12 23.5 25.5t33 25.5t46 20.5t63.5 8.5q41 0 75 -11.5 t62 -23.5q35 -14 64.5 -23.5t64.5 -9.5q66 0 99.5 22.5t56.5 45.5v-205q-18 -20 -51 -44t-105 -24q-43 0 -76.5 10.5t-95.5 34.5q-23 8 -47 14.5t-55 6.5q-63 0 -100 -24.5t-58 -43.5zM346 301q0 -53 40 -88t122 -35q49 0 89 12.5t62 22.5v223q-18 2 -48.5 4t-47.5 2 q-66 0 -104 -12q-37 -10 -59.5 -26.5t-34 -35t-15.5 -37t-4 -30.5z" />
<glyph unicode="&#xe4;" horiz-adv-x="1067" d="M31 289q0 74 24.5 126t58 88t68.5 55.5t56 29.5q63 27 131.5 36t138.5 9q49 0 89 -4t62 -8q-2 37 -11 72.5t-32.5 65t-66.5 47t-115 17.5q-49 0 -95 -8t-88 -20.5t-77 -26.5t-59 -25l149 261q68 16 135.5 24t137.5 8q27 0 65.5 -2t81.5 -11t87 -25.5t83 -47.5 q43 -35 66.5 -72.5t35 -75.5t13.5 -72t2 -60v-422q0 -70 2 -135.5t6 -112.5h-313q-4 35 -4 67.5t-3 88.5l-137 -170q-29 -4 -53.5 -7.5t-58.5 -3.5q-135 0 -211 40t-113 93.5t-46 105.5t-9 75zM123 1294q0 70 50 112t118 42q66 0 117 -41t51 -113t-51.5 -112.5t-116.5 -40.5 q-66 0 -117 41t-51 112zM346 301q0 -53 40 -88t122 -35q49 0 89 12.5t62 22.5v223q-18 2 -48.5 4t-47.5 2q-66 0 -104 -12q-37 -10 -59.5 -26.5t-34 -35t-15.5 -37t-4 -30.5zM585 1294q0 72 51.5 113t116.5 41q68 0 118 -42t50 -112q0 -72 -51 -112.5t-117 -40.5 q-68 0 -118 42t-50 111z" />
<glyph unicode="&#xe5;" horiz-adv-x="1067" d="M31 289q0 74 24.5 126t58 88t68.5 55.5t56 29.5q63 27 131.5 36t138.5 9q49 0 89 -4t62 -8q-2 37 -11 72.5t-32.5 65t-66.5 47t-115 17.5q-49 0 -95 -8t-88 -20.5t-77 -26.5t-59 -25l149 261q68 16 135.5 24t137.5 8q27 0 65.5 -2t81.5 -11t87 -25.5t83 -47.5 q43 -35 66.5 -72.5t35 -75.5t13.5 -72t2 -60v-422q0 -70 2 -135.5t6 -112.5h-313q-4 35 -4 67.5t-3 88.5l-137 -170q-29 -4 -53.5 -7.5t-58.5 -3.5q-135 0 -211 40t-113 93.5t-46 105.5t-9 75zM346 301q0 -53 40 -88t122 -35q49 0 89 12.5t62 22.5v223q-18 2 -48.5 4 t-47.5 2q-66 0 -104 -12q-37 -10 -59.5 -26.5t-34 -35t-15.5 -37t-4 -30.5zM375 1319q0 43 14.5 81t42 66.5t65.5 46t87 17.5q94 0 152.5 -60.5t58.5 -148.5q0 -43 -14.5 -81t-42 -67.5t-65.5 -47t-87 -17.5t-89 17.5t-66.5 47t-41 67.5t-14.5 79zM480 1317q0 -45 28.5 -75 t75.5 -30q45 0 75.5 30t30.5 77q0 45 -28.5 74.5t-75.5 29.5q-49 0 -77.5 -29.5t-28.5 -76.5z" />
<glyph unicode="&#xe6;" horiz-adv-x="1705" d="M31 297q0 72 32.5 140.5t98.5 115.5q53 39 135 63.5t195 24.5q41 0 74.5 -3t80.5 -7q-4 92 -54 143t-167 51q-96 0 -178 -29.5t-133 -52.5l149 258q35 10 101.5 22.5t160.5 12.5q47 0 114 -8t130 -39q35 -20 53.5 -36.5t34.5 -34.5q18 16 42 34.5t69 38.5q61 29 115.5 37 t93.5 8q123 0 219 -45t159 -119q43 -51 67 -107t35 -111.5t13 -106.5t2 -92h-698q35 -141 114.5 -203t227.5 -62q78 0 160 17.5t172 56.5l-148 -256q-47 -12 -95 -18t-89 -9.5t-69.5 -4.5t-37.5 -1q-47 0 -90 4.5t-84 12.5q-66 14 -114 37.5t-83.5 49t-58 49.5t-35.5 40 l-122 -170q-31 -8 -71 -15.5t-101 -7.5q-145 0 -229.5 39t-126.5 92.5t-53 107.5t-11 83zM346 307q0 -47 25.5 -73.5t58.5 -39t64.5 -14.5t44.5 -2q47 0 97 10.5t81 24.5q-35 59 -49.5 113.5t-20.5 126.5q-18 2 -27.5 2h-25.5q-18 0 -59 -2t-83 -16.5t-74 -44.5t-32 -85z M969 633h385q-8 92 -53.5 148.5t-133.5 56.5q-20 0 -56 -7.5t-71 -42.5q-39 -37 -52 -79.5t-19 -75.5z" />
<glyph unicode="&#xe7;" horiz-adv-x="937" d="M51 504q0 104 36 200.5t105.5 170t174 118.5t243.5 45q59 0 134 -11t155 -46v-274q-10 10 -30.5 26.5t-49 32.5t-67.5 27.5t-86 11.5q-61 0 -111.5 -22.5t-85.5 -62.5t-54.5 -94.5t-19.5 -117.5q0 -59 18.5 -115.5t56.5 -99.5t96.5 -69.5t135.5 -26.5q66 0 124.5 16 t111.5 37l-133 -244q-12 -4 -36 -9t-53.5 -9t-63.5 -8.5t-66 -4.5q-127 0 -226.5 43t-168 115t-104.5 168t-36 203zM252 -418l184 338h271l-244 -338h-211z" />
<glyph unicode="&#xe8;" horiz-adv-x="1150" d="M51 504q0 113 36 210t104.5 168.5t169 112.5t231.5 41q37 0 87 -4t105.5 -21.5t111.5 -50t103 -88.5q45 -53 69 -109t35 -111.5t13 -106.5t2 -90h-715q0 -8 6.5 -33t20.5 -54.5t35.5 -60.5t52.5 -51q53 -35 106.5 -48t131.5 -13q86 0 168 17t159 50l-145 -254 q-86 -20 -161 -26.5t-126 -6.5q-166 0 -280.5 45.5t-185 120t-102.5 170t-32 193.5zM266 1284v225l486 -184v-221zM397 633h402q-2 27 -10.5 69.5t-47.5 81.5q-55 55 -137 56q-68 0 -128 -47.5t-79 -159.5z" />
<glyph unicode="&#xe9;" horiz-adv-x="1150" d="M51 504q0 113 36 210t104.5 168.5t169 112.5t231.5 41q37 0 87 -4t105.5 -21.5t111.5 -50t103 -88.5q45 -53 69 -109t35 -111.5t13 -106.5t2 -90h-715q0 -8 6.5 -33t20.5 -54.5t35.5 -60.5t52.5 -51q53 -35 106.5 -48t131.5 -13q86 0 168 17t159 50l-145 -254 q-86 -20 -161 -26.5t-126 -6.5q-166 0 -280.5 45.5t-185 120t-102.5 170t-32 193.5zM397 633h402q-2 27 -10.5 69.5t-47.5 81.5q-55 55 -137 56q-68 0 -128 -47.5t-79 -159.5zM403 1104v221l480 184v-225z" />
<glyph unicode="&#xea;" horiz-adv-x="1150" d="M51 504q0 113 36 210t104.5 168.5t169 112.5t231.5 41q37 0 87 -4t105.5 -21.5t111.5 -50t103 -88.5q45 -53 69 -109t35 -111.5t13 -106.5t2 -90h-715q0 -8 6.5 -33t20.5 -54.5t35.5 -60.5t52.5 -51q53 -35 106.5 -48t131.5 -13q86 0 168 17t159 50l-145 -254 q-86 -20 -161 -26.5t-126 -6.5q-166 0 -280.5 45.5t-185 120t-102.5 170t-32 193.5zM338 1104v227l258 189l266 -189v-227l-266 184zM397 633h402q-2 27 -10.5 69.5t-47.5 81.5q-55 55 -137 56q-68 0 -128 -47.5t-79 -159.5z" />
<glyph unicode="&#xeb;" horiz-adv-x="1150" d="M51 504q0 113 36 210t104.5 168.5t169 112.5t231.5 41q37 0 87 -4t105.5 -21.5t111.5 -50t103 -88.5q45 -53 69 -109t35 -111.5t13 -106.5t2 -90h-715q0 -8 6.5 -33t20.5 -54.5t35.5 -60.5t52.5 -51q53 -35 106.5 -48t131.5 -13q86 0 168 17t159 50l-145 -254 q-86 -20 -161 -26.5t-126 -6.5q-166 0 -280.5 45.5t-185 120t-102.5 170t-32 193.5zM176 1294q0 70 50 112t118 42q66 0 117 -41t51 -113t-51.5 -112.5t-116.5 -40.5q-66 0 -117 41t-51 112zM397 633h402q-2 27 -10.5 69.5t-47.5 81.5q-55 55 -137 56q-68 0 -128 -47.5 t-79 -159.5zM638 1294q0 72 51.5 113t116.5 41q68 0 118 -42t50 -112q0 -72 -51 -112.5t-117 -40.5q-68 0 -118 42t-50 111z" />
<glyph unicode="&#xec;" horiz-adv-x="512" d="M-51 1284v225l486 -184v-221zM90 0v1012h330v-1012h-330z" />
<glyph unicode="&#xed;" horiz-adv-x="512" d="M84 1104v221l480 184v-225zM90 0v1012h330v-1012h-330z" />
<glyph unicode="&#xee;" horiz-adv-x="512" d="M-2 1104v227l258 189l266 -189v-227l-266 184zM90 0v1012h330v-1012h-330z" />
<glyph unicode="&#xef;" horiz-adv-x="512" d="M-141 1294q0 70 50 112t118 42q66 0 117 -41t51 -113t-51.5 -112.5t-116.5 -40.5q-66 0 -117 41t-51 112zM90 0v1012h330v-1012h-330zM321 1294q0 72 51.5 113t116.5 41q68 0 118 -42t50 -112q0 -72 -51 -112.5t-117 -40.5q-68 0 -118 42t-50 111z" />
<glyph unicode="&#xf0;" d="M57 514q0 111 34 206t97.5 165.5t153.5 110.5t203 40q51 0 84 -7t49 -11q-16 33 -34.5 64.5t-53.5 74.5l-258 -86l-70 135l213 68q-18 16 -31.5 26.5t-27 19.5t-28.5 19.5t-36 22.5l318 125q47 -35 75.5 -58.5t55.5 -48.5l170 56l65 -133l-125 -41q10 -10 16.5 -20.5 t16.5 -22.5q55 -76 94 -159t62.5 -166t35 -164t11.5 -152q0 -125 -33 -244t-119 -209q-45 -47 -94 -77t-101 -45t-105.5 -20.5t-102.5 -5.5q-139 0 -239.5 44.5t-166 118t-97.5 171t-32 203.5zM406 526q0 -37 3 -73.5t11 -71.5q16 -68 45 -104.5t58.5 -53t54 -19.5t32.5 -3 q49 0 90 24q47 29 76 93.5t29 177.5q0 49 -8.5 106t-30 104.5t-60 79t-102.5 31.5q-66 0 -104.5 -29.5t-60 -74.5t-27.5 -95.5t-6 -91.5z" />
<glyph unicode="&#xf1;" d="M94 0v1012h324v-230l162 224q51 16 100 23t90 7q18 0 48 -2t62.5 -11t67.5 -26.5t66 -48.5q33 -33 50 -68.5t25.5 -71.5t10.5 -72t2 -68v-668h-326v530q0 59 -7 108.5t-26.5 83.5t-55.5 52.5t-93 18.5q-55 0 -100 -20.5t-76 -45.5v-727h-324zM305 1155v195 q10 12 23.5 25.5t33 25.5t46 20.5t63.5 8.5q41 0 75 -11.5t62 -23.5q35 -14 64.5 -23.5t64.5 -9.5q66 0 99.5 22.5t56.5 45.5v-205q-18 -20 -51 -44t-105 -24q-43 0 -76.5 10.5t-95.5 34.5q-23 8 -47 14.5t-55 6.5q-63 0 -100 -24.5t-58 -43.5z" />
<glyph unicode="&#xf2;" d="M51 502q0 113 38 210t109.5 169.5t174 113.5t231.5 41q115 0 213 -34.5t171 -100t114 -163t41 -222.5q0 -102 -30 -198.5t-96.5 -173t-170 -123t-250.5 -46.5t-250.5 46.5t-169 121t-95.5 169t-30 190.5zM291 1284v225l486 -184v-221zM399 506q0 -45 3.5 -75t7.5 -46 q16 -78 62 -132t126 -54q74 0 115 43t59.5 97t21.5 105.5t3 67.5q0 37 -5.5 89t-26 100.5t-59 82t-106.5 33.5q-76 0 -117 -41t-59 -95t-21.5 -105.5t-3.5 -69.5z" />
<glyph unicode="&#xf3;" d="M51 502q0 113 38 210t109.5 169.5t174 113.5t231.5 41q115 0 213 -34.5t171 -100t114 -163t41 -222.5q0 -102 -30 -198.5t-96.5 -173t-170 -123t-250.5 -46.5t-250.5 46.5t-169 121t-95.5 169t-30 190.5zM399 506q0 -45 3.5 -75t7.5 -46q16 -78 62 -132t126 -54 q74 0 115 43t59.5 97t21.5 105.5t3 67.5q0 37 -5.5 89t-26 100.5t-59 82t-106.5 33.5q-76 0 -117 -41t-59 -95t-21.5 -105.5t-3.5 -69.5zM428 1104v221l480 184v-225z" />
<glyph unicode="&#xf4;" d="M51 502q0 113 38 210t109.5 169.5t174 113.5t231.5 41q115 0 213 -34.5t171 -100t114 -163t41 -222.5q0 -102 -30 -198.5t-96.5 -173t-170 -123t-250.5 -46.5t-250.5 46.5t-169 121t-95.5 169t-30 190.5zM340 1104v227l258 189l266 -189v-227l-266 184zM399 506 q0 -45 3.5 -75t7.5 -46q16 -78 62 -132t126 -54q74 0 115 43t59.5 97t21.5 105.5t3 67.5q0 37 -5.5 89t-26 100.5t-59 82t-106.5 33.5q-76 0 -117 -41t-59 -95t-21.5 -105.5t-3.5 -69.5z" />
<glyph unicode="&#xf5;" d="M51 502q0 113 38 210t109.5 169.5t174 113.5t231.5 41q115 0 213 -34.5t171 -100t114 -163t41 -222.5q0 -102 -30 -198.5t-96.5 -173t-170 -123t-250.5 -46.5t-250.5 46.5t-169 121t-95.5 169t-30 190.5zM305 1155v195q10 12 23.5 25.5t33 25.5t46 20.5t63.5 8.5 q41 0 75 -11.5t62 -23.5q35 -14 64.5 -23.5t64.5 -9.5q66 0 99.5 22.5t56.5 45.5v-205q-18 -20 -51 -44t-105 -24q-43 0 -76.5 10.5t-95.5 34.5q-23 8 -47 14.5t-55 6.5q-63 0 -100 -24.5t-58 -43.5zM399 506q0 -45 3.5 -75t7.5 -46q16 -78 62 -132t126 -54q74 0 115 43 t59.5 97t21.5 105.5t3 67.5q0 37 -5.5 89t-26 100.5t-59 82t-106.5 33.5q-76 0 -117 -41t-59 -95t-21.5 -105.5t-3.5 -69.5z" />
<glyph unicode="&#xf6;" d="M51 502q0 113 38 210t109.5 169.5t174 113.5t231.5 41q115 0 213 -34.5t171 -100t114 -163t41 -222.5q0 -102 -30 -198.5t-96.5 -173t-170 -123t-250.5 -46.5t-250.5 46.5t-169 121t-95.5 169t-30 190.5zM201 1294q0 70 50 112t118 42q66 0 117 -41t51 -113t-51.5 -112.5 t-116.5 -40.5q-66 0 -117 41t-51 112zM399 506q0 -45 3.5 -75t7.5 -46q16 -78 62 -132t126 -54q74 0 115 43t59.5 97t21.5 105.5t3 67.5q0 37 -5.5 89t-26 100.5t-59 82t-106.5 33.5q-76 0 -117 -41t-59 -95t-21.5 -105.5t-3.5 -69.5zM663 1294q0 72 51.5 113t116.5 41 q68 0 118 -42t50 -112q0 -72 -51 -112.5t-117 -40.5q-68 0 -118 42t-50 111z" />
<glyph unicode="&#xf7;" horiz-adv-x="1366" d="M0 489v211h1364v-211h-1364zM543 262q0 57 39 99t100 42q63 0 102 -42t39 -97q0 -53 -36.5 -96t-102.5 -43q-59 0 -100 39t-41 98zM543 924q0 57 39 99t100 42q63 0 102 -42t39 -97q0 -53 -36.5 -96.5t-102.5 -43.5q-61 0 -101 40t-40 98z" />
<glyph unicode="&#xf8;" d="M2 68l135 129q-10 14 -24.5 38.5t-27.5 62.5t-23.5 87t-10.5 113q0 109 36 207t106.5 171.5t173 116.5t235.5 43q63 0 114.5 -10t90.5 -23.5t65.5 -29t42.5 -25.5l150 142l129 -140l-143 -137q10 -14 26.5 -38.5t30.5 -61.5t24.5 -87.5t10.5 -115.5q0 -113 -37 -210 t-106.5 -170t-170 -114t-227.5 -41q-98 0 -178 22.5t-143 63.5l-146 -137zM383 535q0 -10 2 -43t4 -56l340 334l-14 14q-20 18 -52 29.5t-69 11.5q-102 0 -156.5 -83t-54.5 -207zM463 242q14 -16 44 -38t89 -22q57 0 98 27t66.5 70t38 97t12.5 109q0 29 -3 47.5t-7 40.5z " />
<glyph unicode="&#xf9;" d="M94 330v682h328v-527q0 -57 1 -90t7 -59q12 -53 49 -85t103 -32q47 0 97 16.5t97 51.5v725h326v-1012h-326v229l-158 -223q-59 -18 -106 -24.5t-76 -6.5q-88 0 -148.5 26t-94.5 58q-35 31 -54.5 66t-29 70.5t-12.5 69.5t-3 65zM291 1284v225l486 -184v-221z" />
<glyph unicode="&#xfa;" d="M94 330v682h328v-527q0 -57 1 -90t7 -59q12 -53 49 -85t103 -32q47 0 97 16.5t97 51.5v725h326v-1012h-326v229l-158 -223q-59 -18 -106 -24.5t-76 -6.5q-88 0 -148.5 26t-94.5 58q-35 31 -54.5 66t-29 70.5t-12.5 69.5t-3 65zM428 1104v221l480 184v-225z" />
<glyph unicode="&#xfb;" d="M94 330v682h328v-527q0 -57 1 -90t7 -59q12 -53 49 -85t103 -32q47 0 97 16.5t97 51.5v725h326v-1012h-326v229l-158 -223q-59 -18 -106 -24.5t-76 -6.5q-88 0 -148.5 26t-94.5 58q-35 31 -54.5 66t-29 70.5t-12.5 69.5t-3 65zM340 1104v227l258 189l266 -189v-227 l-266 184z" />
<glyph unicode="&#xfc;" d="M94 330v682h328v-527q0 -57 1 -90t7 -59q12 -53 49 -85t103 -32q47 0 97 16.5t97 51.5v725h326v-1012h-326v229l-158 -223q-59 -18 -106 -24.5t-76 -6.5q-88 0 -148.5 26t-94.5 58q-35 31 -54.5 66t-29 70.5t-12.5 69.5t-3 65zM203 1294q0 70 50 112t118 42q66 0 117 -41 t51 -113t-51.5 -112.5t-116.5 -40.5q-66 0 -117 41t-51 112zM665 1294q0 72 51.5 113t116.5 41q68 0 118 -42t50 -112q0 -72 -51 -112.5t-117 -40.5q-68 0 -118 42t-50 111z" />
<glyph unicode="&#xfd;" horiz-adv-x="1110" d="M0 1014h352l213 -703l213 703h332l-377 -994q-31 -78 -66.5 -153.5t-97 -135t-157 -97t-242.5 -37.5q-53 0 -93 5t-57 9l82 231q14 -4 34 -7t36 -3q27 0 55.5 9t56 29.5t51 54.5t42.5 85zM383 1104v221l480 184v-225z" />
<glyph unicode="&#xfe;" d="M94 -428v1874h334v-637l137 203q25 8 59.5 16t82.5 8q100 0 181 -37.5t138 -105.5t87 -163t30 -210q0 -133 -38 -234.5t-102.5 -170t-149.5 -104.5t-177 -36t-153.5 27t-94.5 47v-477h-334zM428 270q14 -10 53 -33.5t99 -23.5q102 0 161.5 84t59.5 219q0 49 -11.5 106.5 t-44.5 100.5q-29 39 -72.5 61.5t-99.5 22.5q-41 0 -75.5 -10.5t-69.5 -30.5v-496z" />
<glyph unicode="&#xff;" horiz-adv-x="1110" d="M0 1014h352l213 -703l213 703h332l-377 -994q-31 -78 -66.5 -153.5t-97 -135t-157 -97t-242.5 -37.5q-53 0 -93 5t-57 9l82 231q14 -4 34 -7t36 -3q27 0 55.5 9t56 29.5t51 54.5t42.5 85zM156 1294q0 70 50 112t118 42q66 0 117 -41t51 -113t-51.5 -112.5t-116.5 -40.5 q-66 0 -117 41t-51 112zM618 1294q0 72 51.5 113t116.5 41q68 0 118 -42t50 -112q0 -72 -51 -112.5t-117 -40.5q-68 0 -118 42t-50 111z" />
<glyph unicode="&#x152;" horiz-adv-x="2174" d="M63 709q0 182 66 326.5t174.5 243.5t251.5 151.5t297 52.5q72 0 132 -9.5t132 -25.5h948v-285h-573v-276h494v-283h-494v-317h688l-170 -287h-901q-35 -8 -66.5 -15.5t-66.5 -11.5q-33 -4 -65.5 -7t-67.5 -3q-150 0 -290 47t-248.5 141.5t-174.5 233.5t-66 324zM465 719 q0 -109 28.5 -198t84 -151.5t133 -97t176.5 -34.5q121 0 229 49v876q-41 14 -96 29.5t-127 15.5q-96 0 -175 -34.5t-135.5 -99t-87 -155t-30.5 -200.5z" />
<glyph unicode="&#x153;" horiz-adv-x="1878" d="M51 498q0 125 41 224t114 170t174 108.5t222 37.5q102 0 198.5 -28.5t166.5 -102.5q23 20 47 39t71 39q66 31 128.5 41t117.5 10q25 0 69 -3t98 -18.5t112.5 -46t109.5 -87.5q45 -53 71 -112.5t38 -118t14 -110t2 -87.5h-696q6 -31 21.5 -75t51 -85t99 -69.5t168.5 -28.5 q86 0 169 20.5t163 52.5l-150 -256q-104 -27 -183 -32t-104 -5q-68 0 -143.5 11.5t-142.5 40.5q-55 23 -83 44t-48 42q-47 -47 -101.5 -75t-107.5 -41t-99.5 -17.5t-76.5 -4.5q-115 0 -212.5 33t-168 98.5t-110.5 163t-40 228.5zM393 508q0 -72 15 -135q23 -86 71.5 -130 t116.5 -44q74 0 116 40t62.5 93t24.5 103t4 73q0 35 -6 87t-27.5 100t-61.5 83t-108 35q-59 0 -98 -27.5t-63.5 -70.5t-35 -97.5t-10.5 -109.5zM1141 631h383q-4 59 -22.5 99t-44 63.5t-58.5 33t-64 9.5q-29 0 -61.5 -9.5t-65.5 -44.5q-35 -37 -48 -80t-19 -71z" />
<glyph unicode="&#x178;" horiz-adv-x="1449" d="M0 1446h426l311 -567l314 567h399l-535 -916v-530h-380v530zM326 1722q0 70 50 112t118 42q66 0 117 -41t51 -113t-51.5 -112.5t-116.5 -40.5q-66 0 -117 41t-51 112zM788 1722q0 72 51.5 113t116.5 41q68 0 118 -42t50 -112q0 -72 -51 -112.5t-117 -40.5q-68 0 -118 42 t-50 111z" />
<glyph unicode="&#x2c6;" horiz-adv-x="598" d="M37 1104v227l258 189l266 -189v-227l-266 184z" />
<glyph unicode="&#x2dc;" horiz-adv-x="598" d="M4 1155v195q10 12 23.5 25.5t33 25.5t46 20.5t63.5 8.5q41 0 75 -11.5t62 -23.5q35 -14 64.5 -23.5t64.5 -9.5q66 0 99.5 22.5t56.5 45.5v-205q-18 -20 -51 -44t-105 -24q-43 0 -76.5 10.5t-95.5 34.5q-23 8 -47 14.5t-55 6.5q-63 0 -100 -24.5t-58 -43.5z" />
<glyph unicode="&#x2000;" horiz-adv-x="979" />
<glyph unicode="&#x2001;" horiz-adv-x="1958" />
<glyph unicode="&#x2002;" horiz-adv-x="979" />
<glyph unicode="&#x2003;" horiz-adv-x="1958" />
<glyph unicode="&#x2004;" horiz-adv-x="652" />
<glyph unicode="&#x2005;" horiz-adv-x="489" />
<glyph unicode="&#x2006;" horiz-adv-x="326" />
<glyph unicode="&#x2007;" horiz-adv-x="326" />
<glyph unicode="&#x2008;" horiz-adv-x="244" />
<glyph unicode="&#x2009;" horiz-adv-x="391" />
<glyph unicode="&#x200a;" horiz-adv-x="108" />
<glyph unicode="&#x2010;" horiz-adv-x="768" d="M4 428l154 225h606l-154 -225h-606z" />
<glyph unicode="&#x2011;" horiz-adv-x="768" d="M4 428l154 225h606l-154 -225h-606z" />
<glyph unicode="&#x2012;" horiz-adv-x="768" d="M4 428l154 225h606l-154 -225h-606z" />
<glyph unicode="&#x2013;" horiz-adv-x="1280" d="M4 428l156 225h1116l-156 -225h-1116z" />
<glyph unicode="&#x2014;" horiz-adv-x="1536" d="M4 428l158 225h1370l-158 -225h-1370z" />
<glyph unicode="&#x2018;" horiz-adv-x="512" d="M8 942l285 506h168l-189 -506h-264z" />
<glyph unicode="&#x2019;" horiz-adv-x="512" d="M51 942l189 506h264l-285 -506h-168z" />
<glyph unicode="&#x201a;" horiz-adv-x="512" d="M51 -213l189 506h264l-285 -506h-168z" />
<glyph unicode="&#x201c;" horiz-adv-x="937" d="M8 942l285 506h168l-189 -506h-264zM436 942l285 506h166l-189 -506h-262z" />
<glyph unicode="&#x201d;" horiz-adv-x="937" d="M51 942l189 506h264l-285 -506h-168zM477 942l191 506h262l-285 -506h-168z" />
<glyph unicode="&#x201e;" horiz-adv-x="937" d="M10 -213l191 506h262l-285 -506h-168zM438 -213l189 506h262l-285 -506h-166z" />
<glyph unicode="&#x2022;" horiz-adv-x="681" d="M49 721q0 57 22.5 110.5t61.5 94.5t93 64.5t120 23.5q57 0 109.5 -20.5t92.5 -59.5t62.5 -92.5t22.5 -118.5q0 -61 -20.5 -114.5t-57.5 -93.5t-90 -62.5t-117 -22.5q-70 0 -125 24.5t-94 65.5t-59.5 93.5t-20.5 107.5z" />
<glyph unicode="&#x2026;" horiz-adv-x="2048" d="M168 154q0 33 11 63.5t34 55t55.5 40t73.5 15.5q78 0 125 -53t47 -121q0 -72 -48 -122t-124 -50q-78 0 -126 52t-48 120zM850 154q0 33 11 63.5t34 55t55.5 40t73.5 15.5q78 0 125 -53t47 -121q0 -72 -48 -122t-124 -50q-78 0 -126 52t-48 120zM1532 154q0 33 11 63.5 t33.5 55t55.5 40t74 15.5q78 0 125 -53t47 -121q0 -72 -48 -122t-124 -50q-78 0 -126 52t-48 120z" />
<glyph unicode="&#x202f;" horiz-adv-x="391" />
<glyph unicode="&#x2039;" horiz-adv-x="512" d="M2 545l221 319h287l-223 -319l223 -324h-285z" />
<glyph unicode="&#x203a;" horiz-adv-x="512" d="M2 221l223 320l-223 323h285l223 -323l-223 -320h-285z" />
<glyph unicode="&#x205f;" horiz-adv-x="489" />
<glyph unicode="&#x2122;" horiz-adv-x="1406" d="M16 1327v119h570v-119h-209v-561h-146v561h-215zM643 766v680h188l164 -514l156 514h190v-680h-141l6 391q0 31 3 76t5 63q-6 -23 -14 -53.5t-16 -58.5l-127 -418h-129l-131 418q-2 6 -6.5 21.5t-9.5 32.5t-9 32.5t-6 21.5q4 -29 6 -61.5t4 -73.5l8 -391h-141z" />
<glyph unicode="&#x25fc;" horiz-adv-x="1013" d="M0 0v1014h1014v-1014h-1014z" />
</font>
</defs>
</svg>
